imdb
rating

6.3
The General's Daughter

The General's Daughter (1999)

Drama, Mystery, Thriller

Full description

The General's Daughter (1999)-alE13

Size 3.524 GB   0 seeders     Added 2013-05-19 09:20:36

Stream torrent
Starting‥ You need BitLord! Get it from BitLord.com
To download or stream you need BitLord. Visit them at BitLord.com
							
gatunek: Dramat,Kryminał,Thriller
produkcja: Niemcy,USA
premiera: 18 czerwca 1999
reżyseria: Simon West
scenariusz: William Goldman,Christopher Bertolini
czas: 01:56:24
opis:
When the daughter of a well-known and well-respected base commander is murdered, 
an undercover detective is summoned to look into the matter and finds a slew of 
cover-ups at West Point. 
Wojskowy oficer śledczy Paul Brenner ma zadanie przeprowadzenia dochodzenia 
w sprawie zabójstwa kapitan Elizabeth Campbell, córki generała, której zmasakrowane 
zwłoki znaleziono w bazie wojskowej. Według wszelkich przypuszczeń ofiara przed 
śmiercią została poddana rytuałom sadomasochistycznym. Brenner prowadzi śledztwo 
wspólnie z przydzieloną mu do pomocy wojskową psycholog Sarą Sunhill.
obsada:
John Travolta - Oficer Paul Brenner
Madeleine Stowe - Oficer Sara Sunhill
James Cromwell - Generał Joseph Campbell
Timothy Hutton - Pułkownik William Kent
dane techniczne:
The General's Daughter (1999)-alE13.mkv
Format : Matroska
Format version : Version 4 / Version 2
File size : 3.26 GiB
Duration : 1h 56mn
Overall bit rate : 4 004 Kbps
Movie name : The General's Daughter (1999) - alE13_AT-TEAM
Encoded date : UTC 2013-05-19 01:42:39
Writing application : mkvmerge v6.1.0 
Writing library : Lavf52.94.0
Video
ID : 1
Format : AVC
Format/Info : Advanced Video Codec
Format profile : Main@L3.1
Format settings, CABAC : Yes
Format settings, ReFrames : 2 frames
Codec ID : V_MPEG4/ISO/AVC
Duration : 1h 56mn
Bit rate : 3 500 Kbps
Width : 1 280 pixels
Height : 536 pixels
Display aspect ratio : 2.40:1
Frame rate mode : Constant
Frame rate : 23.976 fps
Color space : YUV
Chroma subsampling : 4:2:0
Bit depth : 8 bits
Scan type : Progressive
Bits/(Pixel*Frame) : 0.213
Stream size : 2.77 GiB (85%)
Title : The General's Daughter (1999)-alE13
Writing library : x264 core 112 r1834 a51816a
Audio
ID : 2
Format : AC-3
Format/Info : Audio Coding 3
Mode extension : CM (complete main)
Format settings, Endianness : Big
Codec ID : A_AC3
Duration : 1h 56mn
Bit rate mode : Constant
Bit rate : 512 Kbps
Channel(s) : 6 channels
Channel positions : Front: L C R, Side: L R, LFE
Sampling rate : 48.0 KHz
Bit depth : 16 bits
Compression mode : Lossy
Stream size : 426 MiB (13%)
Title : The General's Daughter (1999)-alE13_AC3
Language : English
Text
ID : 3
Format : UTF-8
Codec ID : S_TEXT/UTF8
Codec ID/Info : UTF-8 Plain Text
Title : The General's Daughter (1999)-alE13_pl
Language : Polish
						
The General's Daughter (1999)-alE13/sub/The General's Daughter (1999)-alE13.srt 79.358 KB
The General's Daughter (1999)-alE13/sub/The General's Daughter (1999)-alE13.txt 56.921 KB
The General's Daughter (1999)-alE13/The General's Daughter (1999)-alE13.mkv 3.496 GB
Gathering some info...

Register and log in Isohunt and see no captcha anymore!

4000 symbols left
Hash fa6a75eeb9c349a017de846dac1edb1476909138

Related torrents for "The General's Daughter (1999)-alE13"

Torrent search:

1999