Dont Trust The Bitch In Apartment 23 S01E09 - The Leak (Aired As S02E12).mp4

Size 137.9 MB   0 seeders     Added 2013-05-19 09:24:37

Stream torrent
Starting‥ You need BitLord! Get it from BitLord.com
To download or stream you need BitLord. Visit them at BitLord.com
General
Complete name : fast and furious 6 2013 cam xvid mp3-MiLLENiUM.avi
Source : 720P CAM CODER [THANKS]
Format : AVI
Format/Info : Audio Video Interleave
File size : 1.55 GiB
Duration : 2h 0mn
Overall bit rate : 1 837 Kbps
Writing application : VirtualDubMod 1.5.10.2 (build 2540/release)
Writing library : VirtualDubMod build 2540/release
Video
ID : 0
Format : MPEG-4 Visual
Format profile : Advanced Simple@L5
Format settings, BVOP : 2
Format settings, QPel : No
Format settings, GMC : No warppoints
Format settings, Matrix : Default (H.263)
Muxing mode : Packed bitstream
Codec ID : XVID
Codec ID/Hint : XviD
Duration : 2h 0mn
Bit rate : 1 689 Kbps
Width : 720 pixels
Height : 304 pixels
Display aspect ratio : 2.35:1
Frame rate : 50.000 fps
Color space : YUV
Chroma subsampling : 4:2:0
Bit depth : 8 bits
Scan type : Progressive
Compression mode : Lossy
Bits/(Pixel*Frame) : 0.154
Stream size : 1.43 GiB (92%)
Writing library : XviD 64
Audio
ID : 1
Format : MPEG Audio
Format version : Version 1
Format profile : Layer 3
Codec ID : 55
Codec ID/Hint : MP3
Duration : 2h 0mn
Bit rate mode : Constant
Bit rate : 128 Kbps
Channel(s) : 2 channels
Sampling rate : 44.1 KHz
Compression mode : Lossy
Stream size : 111 MiB (7%)
Alignment : Split accross interleaves
Interleave, duration : 20 ms (1.00 video frame)
Interleave, preload duration : 500 ms
Notes :
lots of cam movement in this...
cropped most as i can without ruining what picture there is
alterd the useual gamma,hue,saturation with our filters
would have been easy to use a smoother on this i decided against it
that way you can see what detail there is
normalised audio and ran threw a fronts filter
sample included shows movement and dark scenes		
Dont Trust The Bitch In Apartment 23 S01E09 - The Leak (Aired As S02E12).mp4 137.9 MB
Gathering some info...

Register and log in Isohunt and see no captcha anymore!

4000 symbols left
Hash 4be2dc61e2c5e9021f9ed9d685e48c665668b93c

Related torrents for "Dont Trust The Bitch In Apartment 23 S01E09 - The Leak (Aired As S02E12).mp4"