IMPACT.WRESTLING.2013.04.25.HDTV.XviD-FICEK9

Size 782.996 MB   0 seeders     Added 2013-05-19 18:32:38

Stream torrent
Starting‥ You need BitLord! Get it from BitLord.com
To download or stream you need BitLord. Visit them at BitLord.com
      Complete name : IMPACT.WRESTLING.2013.04.25.HDTV.XviD-FICEK9.avi
      Format : AVI
      Format/Info : Audio Video Interleave
      File size : 747 MiB
      Duration : 1h 24mn
      Overall bit rate : 1 237 Kbps
      Writing application : MEncoder SVN-r33883(20110719-gcc4.5.2)
      Writing library : MPlayer
   Video
      Format : MPEG-4 Visual
      Format profile : Streaming Video@L1
      Format settings, BVOP : Yes
      Format settings, QPel : No
      Format settings, GMC : No warppoints
      Format settings, Matrix : Default (H.263)
      Codec ID : XVID
      Codec ID/Hint : XviD
      Duration : 1h 24mn
      Bit rate : 1 099 Kbps
      Width : 624 pixels
      Height : 352 pixels
      Display aspect ratio : 16/9
      Frame rate : 29.970 fps
      Resolution : 24 bits
      Colorimetry : 4:2:0
      Scan type : Progressive
      Bits/(Pixel*Frame) : 0.167
      Stream size : 663 MiB (89%)
      Writing library : XviD 1.2.1 (UTC 2008-12-04)
   Audio
      Format : MPEG Audio
      Format version : Version 1
      Format profile : Layer 3
      Codec ID : 55
      Codec ID/Hint : MP3
      Duration : 1h 24mn
      Bit rate mode : Constant
      Bit rate : 32.0 Kbps
      Channel(s) : 2 channels
      Sampling rate : 48.0 KHz
      Resolution : 16 bits
      Stream size : 75.2 MiB (10%)
      Alignment : Aligned on interleaves
      Interleave, duration : 24 ms (0.72 video frame)
      Interleave, preload duration : 696 ms
      Writing library : LAME3.98.4		
IMPACT.WRESTLING.2013.04.25.HDTV.XviD-FICEK9/IMPACT.WRESTLING.2013.04.25.HDTV.XviD-FICEK9.avi 782.995 MB
IMPACT.WRESTLING.2013.04.25.HDTV.XviD-FICEK9/IMPACT.WRESTLING.2013.04.25.HDTV.XviD-FICEK9.nfo 1.547 KB
Gathering some info...

Register and log in Isohunt and see no captcha anymore!

4000 symbols left
Hash 9ebd2097712476fa8c7c64ced8ba8bf514d7d40b