Balmorhea - Balmorhea (2007) [EAC FLAC,CUE][A.C.U.M.]

Size 209.657 MB   0 seeders     Added 2013-05-19 22:39:35

Stream torrent
Starting‥ You need BitLord! Get it from BitLord.com
To download or stream you need BitLord. Visit them at BitLord.com
							Balmorhea - Balmorhea (2007) [EAC FLAC,CUE][A.C.U.M.]
Balmorhea è un gruppo rock minimalista originario di Austin (Texas, Stati Uniti), fondato nel 2006 da Rob Lowe e Michael Muller.
La band ha prodotto 5 album full-length, l'ultimo dei quali Stranger è stato pubblicato negli Stati Uniti nell'ottobre 2012.
Le loro influenze maggiori provengono da Ludovico Einaudi, The Six Parts Seven, Claude Debussy, Ludwig van Beethoven, Rachel's, Gillian Welch, Max Richter, Arvo Pärt e John Cage.
Fonte: wikipedia
Scheda tecnica :
Gruppo : Balmorhea
Album : Balmorhea
Anno : 2007
Genere : minimalista
Paese : USA
Band :
Rob Lowe - chitarra, pianoforte, melodica, banjo
Michael Muller - chitarra, banjo, pianoforte
Aisha Burns - violino
Dylan Rieck - violoncello
Travis Chapman - contrabbasso
Kendall Clark - percussioni
Songs :
1 - Attesa
2 - Baleen Morning
3 - Dream of Thaw
4 - In the Rowans
5 - A Circumnavigation
6 - En Route
7 - If You Only Knew the Rain
8 - And I Can Hear the Soft Rustling of My Blood
9 - We Will Rebuild with Smooth Stones
EAC Log :
Exact Audio Copy V0.99 prebeta 4 from 23. January 2008

EAC extraction logfile from 31. October 2008, 15:10

Balmorhea / Balmorhea

Used drive : PLEXTOR DVDR PX-750A Adapter: 0 ID: 0

Read mode : Secure
Utilize accurate stream : Yes
Defeat audio cache : Yes
Make use of C2 pointers : No

Read offset correction : 102
Overread into Lead-In and Lead-Out : No
Fill up missing offset samples with silence : Yes
Delete leading and trailing silent blocks : No
Null samples used in CRC calculations : Yes
Used interface : Installed external ASPI interface
Gap handling : Appended to previous track

Used output format : User Defined Encoder
Selected bitrate : 192 kBit/s
Quality : High
Add ID3 tag : No
Command line compressor : C:\Program Files\EAC\Exact Audio Copy\FLAC\flac.exe
Additional command line options : -V -8 -T "artist=%a" -T "title=%t" -T "album=%g" -T "date=%y" -T "tracknumber=%n" -T "genre=%m" %s


TOC of the extracted CD

 Track | Start | Length | Start sector | End sector 
 ---------------------------------------------------------
 1 | 0:00.00 | 3:14.04 | 0 | 14553 
 2 | 3:14.04 | 3:26.51 | 14554 | 30054 
 3 | 6:40.55 | 5:03.17 | 30055 | 52796 
 4 | 11:43.72 | 4:14.04 | 52797 | 71850 
 5 | 15:58.01 | 4:15.25 | 71851 | 91000 
 6 | 20:13.26 | 5:26.48 | 91001 | 115498 
 7 | 25:39.74 | 5:03.40 | 115499 | 138263 
 8 | 30:43.39 | 5:32.26 | 138264 | 163189 
 9 | 36:15.65 | 5:12.09 | 163190 | 186598 


Track 1

 Filename E:\FLAC\Balmorhea - Balmorhea\01 - Attesa.wav

 Pre-gap length 0:00:02.00

 Peak level 100.0 %
 Track quality 100.0 %
 Test CRC 0E361A6D
 Copy CRC 0E361A6D
 Track not present in AccurateRip database
 Copy OK

Track 2

 Filename E:\FLAC\Balmorhea - Balmorhea\02 - Baleen Morning.wav

 Peak level 97.7 %
 Track quality 100.0 %
 Test CRC F0A133FC
 Copy CRC F0A133FC
 Track not present in AccurateRip database
 Copy OK

Track 3

 Filename E:\FLAC\Balmorhea - Balmorhea\03 - Dream Of Thaw.wav

 Peak level 100.0 %
 Track quality 100.0 %
 Test CRC AF3C99E0
 Copy CRC AF3C99E0
 Track not present in AccurateRip database
 Copy OK

Track 4

 Filename E:\FLAC\Balmorhea - Balmorhea\04 - In The Rowans.wav

 Peak level 97.7 %
 Track quality 100.0 %
 Test CRC ABCC1705
 Copy CRC ABCC1705
 Track not present in AccurateRip database
 Copy OK

Track 5

 Filename E:\FLAC\Balmorhea - Balmorhea\05 - A Circumnavigation.wav

 Peak level 96.3 %
 Track quality 99.9 %
 Test CRC CA5E54D8
 Copy CRC CA5E54D8
 Track not present in AccurateRip database
 Copy OK

Track 6

 Filename E:\FLAC\Balmorhea - Balmorhea\06 - En Route.wav

 Peak level 97.7 %
 Track quality 100.0 %
 Test CRC 6FA3943D
 Copy CRC 6FA3943D
 Track not present in AccurateRip database
 Copy OK

Track 7

 Filename E:\FLAC\Balmorhea - Balmorhea\07 - If You Only Knew the Rain.wav

 Peak level 97.7 %
 Track quality 100.0 %
 Test CRC AD97C9B9
 Copy CRC AD97C9B9
 Track not present in AccurateRip database
 Copy OK

Track 8

 Filename E:\FLAC\Balmorhea - Balmorhea\08 - And I Can Hear The Soft Rustling Of My Blood (As If Snow Were Sliding Down The Mountains).wav

 Peak level 97.7 %
 Track quality 100.0 %
 Test CRC 8FAA1F63
 Copy CRC 8FAA1F63
 Track not present in AccurateRip database
 Copy OK

Track 9

 Filename E:\FLAC\Balmorhea - Balmorhea\09 - We Will Rebuild With Smooth Stones.wav

 Peak level 93.6 %
 Track quality 100.0 %
 Test CRC EDE2F344
 Copy CRC EDE2F344
 Track not present in AccurateRip database
 Copy OK


None of the tracks are present in the AccurateRip database

No errors occurred

End of status report
Balmorhea - Balmorhea (2007) [EAC FLAC,CUE][A.C.U.M.]/01 - Attesa.flac 15.719 MB
Balmorhea - Balmorhea (2007) [EAC FLAC,CUE][A.C.U.M.]/02 - Baleen Morning.flac 18.226 MB
Balmorhea - Balmorhea (2007) [EAC FLAC,CUE][A.C.U.M.]/03 - Dream Of Thaw.flac 29.042 MB
Gathering some info...

Register and log in Isohunt and see no captcha anymore!

4000 symbols left
Hash 6f7d12f3a0ae1466adf09b4ad4b5632f6eb0f1f4

Related torrents for "Balmorhea - Balmorhea (2007) [EAC FLAC,CUE][A.C.U.M.]"

Torrent search:

lossless lossless 2007