imdb
rating

7.7
Minority Report

Minority Report (2002)

Action, Mystery, Science Fiction, Thriller

Full description
quality   dvdrip h264 hdtv hd bd fullhd

Minority Report [2002] BDRip XviD - CODY

Size 1.079 GB   0 seeders     Added 2013-05-20 01:02:35

Stream torrent
Starting‥ You need BitLord! Get it from BitLord.com
To download or stream you need BitLord. Visit them at BitLord.com
							General
Complete name : Minority Report [2002] BDRip XviD - CODY.avi
Format : AVI
Format/Info : Audio Video Interleave
File size : 1.00 GiB
Duration : 2h 25mn
Overall bit rate : 990 Kbps
Writing application : VirtualDubMod 1.5.10.3 | www.virtualdub-fr.org || (build 2550/release)
Writing library : VirtualDubMod build 2550/release
Video
ID : 0
Format : MPEG-4 Visual
Format profile : Advanced Simple@L5
Format settings, BVOP : 4
Format settings, QPel : No
Format settings, GMC : No warppoints
Format settings, Matrix : Default (H.263)
Codec ID : XVID
Codec ID/Hint : XviD
Duration : 2h 25mn
Bit rate : 853 Kbps
Width : 720 pixels
Height : 304 pixels
Display aspect ratio : 2.35:1
Frame rate : 23.976 fps
Color space : YUV
Chroma subsampling : 4:2:0
Bit depth : 8 bits
Scan type : Progressive
Compression mode : Lossy
Bits/(Pixel*Frame) : 0.162
Stream size : 885 MiB (86%)
Writing library : XviD 73
Audio
ID : 1
Format : MPEG Audio
Format version : Version 1
Format profile : Layer 3
Codec ID : 55
Codec ID/Hint : MP3
Duration : 2h 25mn
Bit rate mode : Constant
Bit rate : 128 Kbps
Channel(s) : 2 channels
Sampling rate : 48.0 KHz
Compression mode : Lossy
Stream size : 133 MiB (13%)
Alignment : Aligned on interleaves
Interleave, duration : 42 ms (1.00 video frame)
Interleave, preload duration : 504 ms
Writing library : LAME3.99r
Encoding settings : -m s -V 4 -q 2 -lowpass 17 -b 128
Audio language : English
IMDB link: http://www.imdb.com/title/tt0181689/
Subtitles included : Romanian
Please seed at least 1,5:1 . This way this torrent has a chance to survive !
Thanks . Enjoy !!
						
Minority Report [2002] BDRip XviD - CODY/Cover.jpg 820.811 KB
Minority Report [2002] BDRip XviD - CODY/Info_by_Cody.txt 5.582 KB
Minority Report [2002] BDRip XviD - CODY/Minority Report [2002] BDRip XviD - CODY.avi 1.078 GB
Gathering some info...

Register and log in Isohunt and see no captcha anymore!

4000 symbols left
Hash 1fa4e483162194882a986234954073ea9e79cedf

Related torrents for "Minority Report [2002] BDRip XviD - CODY"

Torrent search:

2002 bd