imdb
rating

7.1
The Lady

The Lady (2011)

Drama

Full description
quality   fullhd hd dvdrip

Lady Antebellum - Goodbye Town [Music Video] 720p [Sbyky].mp4

Size 82.032 MB   0 seeders     Added 2013-05-20 01:40:27

Stream torrent
Starting‥ You need BitLord! Get it from 1BitLord.com
To download or stream you need BitLord. Visit them at BitLord.com
							
General
Complete name : Lady Antebellum - Goodbye Town [Music Video] 720p [Sbyky].mp4
Format : MPEG-4
Format profile : Base Media / Version 2
Codec ID : mp42
File size : 78.2 MiB
Duration : 5mn 1s
Overall bit rate mode : Variable
Overall bit rate : 2 177 Kbps
Encoded date : UTC 2013-05-07 20:39:34
Tagged date : UTC 2013-05-07 20:39:34
Video
ID : 1
Format : AVC
Format/Info : Advanced Video Codec
Format profile : High@L3.1
Format settings, CABAC : Yes
Format settings, ReFrames : 1 frame
Codec ID : avc1
Codec ID/Info : Advanced Video Coding
Duration : 5mn 1s
Bit rate : 1 983 Kbps
Maximum bit rate : 5 233 Kbps
Width : 1 280 pixels
Height : 720 pixels
Display aspect ratio : 16:9
Frame rate mode : Constant
Frame rate : 23.976 fps
Color space : YUV
Chroma subsampling : 4:2:0
Bit depth : 8 bits
Scan type : Progressive
Bits/(Pixel*Frame) : 0.090
Stream size : 71.2 MiB (91%)
Tagged date : UTC 2013-05-07 20:39:38
Audio
ID : 2
Format : AAC
Format/Info : Advanced Audio Codec
Format profile : LC
Codec ID : 40
Duration : 5mn 1s
Bit rate mode : Variable
Bit rate : 192 Kbps
Maximum bit rate : 202 Kbps
Channel(s) : 2 channels
Channel positions : Front: L R
Sampling rate : 44.1 KHz
Compression mode : Lossy
Stream size : 6.90 MiB (9%)
Title : IsoMedia File Produced by Google, 5-11-2011
Encoded date : UTC 2013-05-07 20:39:37
Tagged date : UTC 2013-05-07 20:39:38
Shared By Sbyky
Lady Antebellum - Goodbye Town [Music Video] 720p [Sbyky].mp4 82.032 MB
Gathering some info...

Register and log in Isohunt and see no captcha anymore!

4000 symbols left
Hash f47304fe58632c1cd9bdf95351c69ea9c1ece87a

Related torrents for "Lady Antebellum - Goodbye Town [Music Video] 720p [Sbyky].mp4"

Torrent search:

hd