Lost in the Snow (2002) DVDRip XviD AC3 peaSoup

Size 391.715 MB   0 seeders     Added 2013-05-20 01:50:33

Stream torrent
Starting‥ You need BitLord! Get it from BitLord.com
To download or stream you need BitLord. Visit them at BitLord.com
List:
http://www.imdb.com/title/tt0760243/
List:
List:

List:
Format : AVI
Format/Info : Audio Video Interleave
File size : 374 MiB
Duration : 24mn 16s
Overall bit rate : 2 152 Kbps
Movie name : Lost in the Snow (2002) DVDRip XviD AC3 peaSoup
Writing application : Lavf53.21.0
Original source form/Name : DVDVOLUME
Video
ID : 0
Format : MPEG-4 Visual
Format profile : Advanced Simple@L5
Format settings, BVOP : 2
Format settings, QPel : No
Format settings, GMC : No warppoints
Format settings, Matrix : Default (H.263)
Muxing mode : Packed bitstream
Codec ID : XVID
Codec ID/Hint : XviD
Duration : 24mn 16s
Bit rate : 1 949 Kbps
Width : 720 pixels
Height : 542 pixels
Display aspect ratio : 4:3
Frame rate : 25.000 fps
Color space : YUV
Chroma subsampling : 4:2:0
Bit depth : 8 bits
Scan type : Progressive
Compression mode : Lossy
Bits/(Pixel*Frame) : 0.200
Stream size : 338 MiB (91%)
Writing library : XviD 1.2.1 (UTC 2008-12-04)
Audio
ID : 1
Format : AC-3
Format/Info : Audio Coding 3
Mode extension : CM (complete main)
Format settings, Endianness : Big
Codec ID : 2000
Duration : 24mn 15s
Bit rate mode : Constant
Bit rate : 192 Kbps
Channel(s) : 2 channels
Channel positions : Front: L R
Sampling rate : 48.0 KHz
Bit depth : 16 bits
Compression mode : Lossy
Stream size : 33.3 MiB (9%)
Alignment : Aligned on interleaves
Interleave, duration : 32 ms (0.80 video frame)
Lost in the Snow (2002) DVDRip XviD AC3 peaSoup/Lost in the Snow (2002) DVDRip XviD AC3 peaSoup.avi 391.715 MB
Gathering some info...

Register and log in Isohunt and see no captcha anymore!

4000 symbols left
Hash 32f95c9443ba6ce213dc85a89e464ac00c5806a0