Jennifer Lopez Ft. Pitbull - Live It Up [Music Video] 720p [Sbyky].mp4

Size 103.414 MB   14 seeders     Added 2013-05-20 02:46:55

Stream torrent
Starting‚Ä• You need BitLord! Get it from 1BitLord.com
To download or stream you need BitLord. Visit them at BitLord.com
[IMG]image[/IMG]

General
Complete name                            : Jennifer Lopez Ft. Pitbull - Live It Up [Music Video] 720p [Sbyky].mp4
Format                                   : MPEG-4
Format profile                           : Base Media / Version 2
Codec ID                                 : mp42
File size                                : 98.6 MiB
Duration                                 : 4mn 30s
Overall bit rate mode                    : Variable
Overall bit rate                         : 3 061 Kbps
Encoded date                             : UTC 2013-05-16 15:36:47
Tagged date                              : UTC 2013-05-16 15:36:47

Video
ID                                       : 1
Format                                   : AVC
Format/Info                              : Advanced Video Codec
Format profile                           : High@L3.1
Format settings, CABAC                   : Yes
Format settings, ReFrames                : 1 frame
Codec ID                                 : avc1
Codec ID/Info                            : Advanced Video Coding
Duration                                 : 4mn 30s
Bit rate                                 : 2 867 Kbps
Maximum bit rate                         : 6 101 Kbps
Width                                    : 1 280 pixels
Height                                   : 720 pixels
Display aspect ratio                     : 16:9
Frame rate mode                          : Constant
Frame rate                               : 23.976 fps
Color space                              : YUV
Chroma subsampling                       : 4:2:0
Bit depth                                : 8 bits
Scan type                                : Progressive
Bits/(Pixel*Frame)                       : 0.130
Stream size                              : 92.4 MiB (94%)
Tagged date                              : UTC 2013-05-16 15:36:51

Audio
ID                                       : 2
Format                                   : AAC
Format/Info                              : Advanced Audio Codec
Format profile                           : LC
Codec ID                                 : 40
Duration                                 : 4mn 30s
Bit rate mode                            : Variable
Bit rate                                 : 192 Kbps
Maximum bit rate                         : 202 Kbps
Channel(s)                               : 2 channels
Channel positions                        : Front: L R
Sampling rate                            : 44.1 KHz
Compression mode                         : Lossy
Stream size                              : 6.19 MiB (6%)
Title                                    : IsoMedia File Produced by Google, 5-11-2011
Encoded date                             : UTC 2013-05-16 15:36:50
Tagged date                              : UTC 2013-05-16 15:36:51

Shared By Sbyky
[IMG]image[/IMG]
[IMG]image[/IMG]		
Jennifer Lopez Ft. Pitbull - Live It Up [Music Video] 720p [Sbyky].mp4 103.414 MB
Gathering some info...

Register and log in Isohunt and see no captcha anymore!

4000 symbols left
Hash b3b40a8260964c037f5e75470b0ed21903f346b9