Jennifer Lopez Ft. Pitbull - Live It Up [Music Video] 1080p [Sbyky].mp4

Size 202.118 MB   0 seeders     Added 2013-05-20 02:51:39

Stream torrent
Starting‥ You need BitLord! Get it from BitLord.com
10
To download or stream you need BitLord. Visit them at BitLord.com
General
Complete name : Jennifer Lopez Ft. Pitbull - Live It Up [Music Video] 1080p [Sbyky].mp4
Format : MPEG-4
Format profile : Base Media / Version 2
Codec ID : mp42
File size : 193 MiB
Duration : 4mn 30s
Overall bit rate mode : Variable
Overall bit rate : 5 982 Kbps
Encoded date : UTC 2013-05-16 15:37:11
Tagged date : UTC 2013-05-16 15:37:11
Video
ID : 1
Format : AVC
Format/Info : Advanced Video Codec
Format profile : [email protected]
/*  */

Format settings, CABAC : Yes
Format settings, ReFrames : 1 frame
Codec ID : avc1
Codec ID/Info : Advanced Video Coding
Duration : 4mn 30s
Bit rate : 5 788 Kbps
Maximum bit rate : 11.5 Mbps
Width : 1 920 pixels
Height : 1 080 pixels
Display aspect ratio : 16:9
Frame rate mode : Constant
Frame rate : 23.976 fps
Color space : YUV
Chroma subsampling : 4:2:0
Bit depth : 8 bits
Scan type : Progressive
Bits/(Pixel*Frame) : 0.116
Stream size : 186 MiB (97%)
Tagged date : UTC 2013-05-16 15:37:21
Audio
ID : 2
Format : AAC
Format/Info : Advanced Audio Codec
Format profile : LC
Codec ID : 40
Duration : 4mn 30s
Bit rate mode : Variable
Bit rate : 192 Kbps
Maximum bit rate : 202 Kbps
Channel(s) : 2 channels
Channel positions : Front: L R
Sampling rate : 44.1 KHz
Compression mode : Lossy
Stream size : 6.19 MiB (3%)
Title : IsoMedia File Produced by Google, 5-11-2011
Encoded date : UTC 2013-05-16 15:37:20
Tagged date : UTC 2013-05-16 15:37:21
Shared By Sbyky
Jennifer Lopez Ft. Pitbull - Live It Up [Music Video] 1080p [Sbyky].mp4 202.118 MB
Gathering some info...

Register and log in Isohunt and see no captcha anymore!

4000 symbols left
Hash 029149934bd84fa50a05d6d60f11817b2a268a9c