imdb
rating

4.7
Screamers: The Hunting

Screamers: The Hunting (2009)

Science Fiction

Full description
quality   dvdrip x264

Screamers.The.Hunting.2009.DVDRip.SweSub.Xvid

Size 733.852 MB   3 seeders     Added 2013-05-20 14:16:38

Stream torrent
Starting‥ You need BitLord! Get it from BitLord.com
To download or stream you need BitLord. Visit them at BitLord.com
                            Swedish Hardsub

 
http://www.imdb.com/title/tt1214983/


General
Complete name          : Screamers.The.Hunting.2009.DVDRip.SweSub.Xvid.avi
Format                              : AVI
Format/Info                         : Audio Video Interleave
File size                           : 700 MiB
Duration                            : 1h 30mn

Video
ID                                  : 0
Format                              : MPEG-4 Visual
Format profile                      : Advanced Simple@L5
Format settings, BVOP               : 2
Format settings, QPel               : No
Format settings, GMC                : No warppoints
Format settings, Matrix             : Default (H.263)
Codec ID                            : XVID
Codec ID/Hint                       : XviD
Duration                            : 1h 30mn
Bit rate                            : 934 Kbps
Width                               : 656 pixels
Height                              : 352 pixels
Display aspect ratio                : 1.85:1
Frame rate                          : 25.000 fps
Color space                         : YUV
Chroma subsampling                  : 4:2:0
Bit depth                           : 8 bits
Scan type                           : Progressive
Compression mode                    : Lossy
Bits/(Pixel*Frame)                  : 0.162
Stream size                         : 608 MiB (87%)
Writing library                     : XviD 73

Audio
ID                                  : 1
Format                              : MPEG Audio
Format version                      : Version 1
Format profile                      : Layer 3
Mode                                : Joint stereo
Mode extension                      : MS Stereo
Codec ID                            : 55
Codec ID/Hint                       : MP3
Duration                            : 1h 30mn
Bit rate mode                       : Variable
Bit rate                            : 128 Kbps
Channel(s)                          : 2 channels
Sampling rate                       : 48.0 KHz
Compression mode                    : Lossy
Stream size                         : 83.9 MiB (12%)
Alignment                           : Aligned on interleaves
Interleave, duration                : 24 ms (0.60 video frame)
Interleave, preload duration        : 142 ms
Writing library                     : LAME3.90.
Encoding settings                   : -m j -V 4 -q 2 -lowpass 17.6 --abr 128

		
Screamers.The.Hunting.2009.DVDRip.SweSub.Xvid/Screamers.The.Hunting.2009.DVDRip.SweSub.Xvid.avi 733.85 MB
Screamers.The.Hunting.2009.DVDRip.SweSub.Xvid/Screamers.The.Hunting.2009.DVDRip.SweSub.Xvid.avi - MediaInfo.log 2.517 KB
Gathering some info...

Register and log in Isohunt and see no captcha anymore!

4000 symbols left
Hash 778dc8825bf8e5ca86b3c8b8fc857ac27d8f2d96

Related torrents for "Screamers.The.Hunting.2009.DVDRip.SweSub.Xvid"

Torrent search:

dvdrip 2009