FAST AND FURIOUS 6 CAMRip Xvid READNFO-INFERNO

Size 1.421 GB   0 seeders     Added 2013-05-20 14:35:37

Stream torrent
Starting‚Ä• You need BitLord! Get it from BitLord.com
To download or stream you need BitLord. Visit them at BitLord.com
 
http://www.imdb.com/title/tt1905041/



Plot: Agent Luke Hobbs enlists Dominic Toretto and his team to bring down former Special Ops soldier Owen Shaw, leader of a unit specializing in vehicular warfare. 



Director:
 Justin Lin 

Writers:
 Chris Morgan (screenplay), Gary Scott Thompson (characters) 

Stars:
 Dwayne Johnson, Vin Diesel, Paul Walker

Genres:
  Action |  Crime |  Thriller 

Country:
 USA 

Language:
 English 



SOURCE=TheCod3r THANKS:)
 WORK DONE:VIDEO NEEDING ROTATING BAD AND WE ALL KNOW THE SOURCE HAD ALOT OF MOVEMENT
 SO WE ROTATED,CROPPED TOP BY 32,LEFT BY 20,RIGHT BY 12 AND BOTTOM BY 40 AND YES THERE IS STILL SOME MOVEMENT AND A FEW BOARDERS FROM TIME TO TIME!!!
 NEXT WE RESIZED AND ADDED SOME BRIGHTNESS AND LOWERED THE CONTRAST TO BRING OUT A LITTLE MORE DETAIL AND ADDED A LITTLE SHARPNESS BLA BLA BLA...
 FINALLY REACHING THE END WE ADDED A MSU DEBLOCKER AND VIDEO DENOISE FILTER AND LET HER RUN FOR ABOUT 8 HOURS THE END :lol:
 2 SAMPLES INCLUDED SO PLEASE CHECK THEM FIRST!!!
 THERE ARE A BUNCH OF ENCODES OF THIS TORRENT SO TAKE YOUR PICK:wink:
 IF YOU DON'T HAVE ANYTHING CONSTRUCTIVE TO SAY PLEASE DO NOT BOTHER TO COMMENT.

 AS ALWAYS "THANKS FOR STOPPING BY!"
 jtr/INFERNO 
   

General
 Complete name                            : FAF 6 2013-INF
 Format                                   : AVI
 Format/Info                              : Audio Video Interleave
 File size                                : 1.30 GiB
 Duration                                 : 2h 0mn
 Overall bit rate                         : 1 547 Kbps
 Writing application                      : AVI-Mux GUI 1.17.8.3, 
 Writing library                          : VirtualDub build 32842

 Video
 ID                                       : 0
 Format                                   : MPEG-4 Visual
 Format profile                           : Advanced Simple@L5
 Format settings, BVOP                    : 2
 Format settings, QPel                    : No
 Format settings, GMC                     : No warppoints
 Format settings, Matrix                  : Default (H.263)
 Muxing mode                              : Packed bitstream
 Codec ID                                 : XVID
 Codec ID/Hint                            : XviD
 Duration                                 : 2h 0mn
 Bit rate                                 : 1 399 Kbps
 Width                                    : 608 pixels
 Height                                   : 272 pixels
 Display aspect ratio                     : 2.25:1
 Frame rate                               : 50.000 fps
 Color space                              : YUV
 Chroma subsampling                       : 4:2:0
 Bit depth                                : 8 bits
 Scan type                                : Progressive
 Compression mode                         : Lossy
 Bits/(Pixel*Frame)                       : 0.169
 Stream size                              : 1.18 GiB (90%)
 Writing library                          : XviD 64

 Audio
 ID                                       : 1
 Format                                   : MPEG Audio
 Format version                           : Version 1
 Format profile                           : Layer 3
 Mode                                     : Joint stereo
 Mode extension                           : MS Stereo
 Codec ID                                 : 55
 Codec ID/Hint                            : MP3
 Duration                                 : 2h 0mn
 Bit rate mode                            : Constant
 Bit rate                                 : 128 Kbps
 Channel(s)                               : 2 channels
 Sampling rate                            : 48.0 KHz
 Compression mode                         : Lossy
 Stream size                              : 111 MiB (8%)
 Alignment                                : Split accross interleaves
 Interleave, duration                     : 20 ms (1.00 video frame)
 Interleave, preload duration             : 500 ms





    	image
    	image
    	image
    	image
    	image
    	image		
FAST AND FURIOUS 6 CAMRip Xvid READNFO-INFERNO/FAF 2013-INF.avi 1.401 GB
FAST AND FURIOUS 6 CAMRip Xvid READNFO-INFERNO/samp 1.avi 10.876 MB
FAST AND FURIOUS 6 CAMRip Xvid READNFO-INFERNO/samp 2.avi 9.654 MB
Gathering some info...

Register and log in Isohunt and see no captcha anymore!

4000 symbols left
Hash f0b8e9b3ba52562f63189443b90fa79b2f4c2145

Related torrents for "FAST AND FURIOUS 6 CAMRip Xvid READNFO-INFERNO"

Torrent search:

cam 2013