Iron.Man.3.2013.R6.HDScr.LINE.NoSUBS.NoBLURS.XViD.AC3.HQ.Hive-CM8

Size 1.943 GB   0 seeders     Added 2013-05-20 15:01:34

Stream torrent
Starting‥ You need BitLord! Get it from 1BitLord.com
To download or stream you need BitLord. Visit them at BitLord.com
							http://www.imdb.com/title/tt1300854/Marvel's "Iron Man 3" pits brash-but-brilliant industrialist Tony Stark/Iron Man against an enemy whose reach knows no bounds. When Stark finds his personal world destroyed at his enemy's hands, he embarks on a harrowing quest to find those responsible. This journey, at every turn, will test his mettle. With his back against the wall, Stark is left to survive by his own devices, relying on his ingenuity and instincts to protect those closest to him. As he fights his way back, Stark discovers the answer to the question that has secretly haunted him: does the man make the suit or does the suit make the man? 
Director:
 Shane Black 
Writers:
 Drew Pearce (screenplay), Shane Black (screenplay)
Stars:
 Robert Downey Jr., Gwyneth Paltrow, Guy Pearce
Genres:
 Action | Sci-Fi | Thriller 
Country:
 USA | China 
Language:
 English 
Iron.Man.3.2013.R6.HDScr.LINE.NoSUBS.NoBLURS.XViD.AC3.HQ.Hive-CM8
 Sources:
 Video: 3 different Chinese R6 720p versions including Smy/PDA
 Audio: Unique-Goldenbears Line and Unknowns Line too
 thx to all involved in this final version
 Encode:
 well this nfo gonna be a bit longer..
 I worked a week on this movie, i can tell you it was not funny, but the result is totally worth it.
 Video:
 the chinese source video was hidden well, i had an amazing hd source from day one which hasnt still surfaced yet,
 but it was subbed with 3 nice lines, makes it hard to watch, tried cropping didnt look good, so went to the trash
 smy versions were nice but subbed too, found 3 different videos all same source but either watermarked to death or subbed inside the video.
 the blurred version was out too, found that all over the net, didnt like that either.
 finally i found the source video totally unmarked but was done at wrong framerate, but it was jittering like crazy, tried everything to get
 it in shape no luck on it.
 out of the blue i finally found another hd version that was done professionally, all 3 sublines were added below the hd video
 the highest sub was hardly touching the video at the bottom, so i only needed to crop 4 lines and no subs were visible anymore.
 thats the mainbody for my moviefile, but the video was watermarked on 8 spots.
 so to get a perfect version i had no other choice than to replace the 8 watermark spots with unmarked video from the other hd versions.
 complicated was piecing it together with a single resolution/framerate/brightness/contrast and colouring along with sharpness.
 while i was at it i also decided to insert the afterendcredits scene which came as single files from somewhere(thx for that too)
 into my video.
 so its one complete movie now, all is in one file like seen in cinema.
 Audio:
 there were 2 lines out, uniques and unknowns
 uniques line had more depth so i chose it.
 but it was crackling all over, removing the crackles was easy only took me 4h 
 the distortions on the other hand arent fixable without drowning the voices, found them on 11 spots around 10secs each.
 replaced them with unknowns line.
 so mainbody is the cleaned uniques line, filled in with spots from unknown
 Syncing:
 after i had my complete video i had to sync audio to it, which wasnt easy either, i wanted to do the perfect video with lipsync audio.
 which i finally managed to do in one day.
 The Result is great, looks like a dvdrip now, 
 nothing is blurred,there are no white subs in it, only the yellow one which were already hardcoded in the r6 for translating english onscreen-text
 The audio is clear and retailish, and the afterendcredits bonus scene is within the mainvideo after the endcredits rollout
 got very nice
 This will do me till retail, and it looks perfect on 52" tv
 PS: additional thx to Unique and all others involved i might have forgotten to mention
 Enjoy
 Video: 720x288 @bitrate 1700 2pass
 Audio: English Line 2.0 Stereo
 Sample: yes 2 includedhttp://www.imdb.com/title/tt1300854/
 General
 Complete name : Iron.Man.3.2013.R6.HDScr.LINE.NoSUBS.NoBLURS.XViD.AC3.HQ.Hive-CM8.avi
 Format : AVI
 Format/Info : Audio Video Interleave
 File size : 1.79 GiB
 Duration : 2h 10mn
 Overall bit rate : 1 970 Kbps
 Writing application : Nandub v1.0rc2
 Writing library : Nandub build 1853/release
 Video
 ID : 0
 Format : MPEG-4 Visual
 Format profile : Advanced Simple@L5
 Format settings, BVOP : 2
 Format settings, QPel : Yes
 Format settings, GMC : No warppoints
 Format settings, Matrix : Default (H.263)
 Muxing mode : Packed bitstream
 Codec ID : XVID
 Codec ID/Hint : XviD
 Duration : 2h 10mn
 Bit rate : 1 702 Kbps
 Width : 720 pixels
 Height : 288 pixels
 Display aspect ratio : 2.500
 Frame rate : 29.970 fps
 Color space : YUV
 Chroma subsampling : 4:2:0
 Bit depth : 8 bits
 Scan type : Progressive
 Compression mode : Lossy
 Bits/(Pixel*Frame) : 0.274
 Stream size : 1.55 GiB (86%)
 Writing library : XviD 1.2.1 (UTC 2008-12-04)
 Audio
 ID : 1
 Format : AC-3
 Format/Info : Audio Coding 3
 Mode extension : CM (complete main)
 Format settings, Endianness : Big
 Codec ID : 2000
 Duration : 2h 10mn
 Bit rate mode : Constant
 Bit rate : 256 Kbps
 Channel(s) : 2 channels
 Channel positions : Front: L R
 Sampling rate : 48.0 KHz
 Bit depth : 16 bits
 Compression mode : Lossy
 Delay relative to video : 14ms
 Stream size : 238 MiB (13%)
 Alignment : Split accross interleaves
 Interleave, duration : 33 ms (1.00 video frame)
 Interleave, preload duration : 500 ms
						
Iron.Man.3.2013.R6.HDScr.LINE.NoSUBS.NoBLURS.XViD.AC3.HQ.Hive-CM8/Iron.Man.3.2013.R6.HDScr.LINE.NoSUBS.NoBLURS.XViD.AC3.HQ.Hive-CM8.nfo 6.993 KB
Iron.Man.3.2013.R6.HDScr.LINE.NoSUBS.NoBLURS.XViD.AC3.HQ.Hive-CM8/Iron.Man.3.2013.R6.HDScr.LINE.XViD.AC3.HQ.Hive-CM8 - NO SUBS-NO BLURRS.avi 1.922 GB
Iron.Man.3.2013.R6.HDScr.LINE.NoSUBS.NoBLURS.XViD.AC3.HQ.Hive-CM8/sample.avi 10.967 MB
Gathering some info...

Register and log in Isohunt and see no captcha anymore!

4000 symbols left
Hash 5fe313c06ed69b9ea7603d967105bcb9bb30a6b3