imdb
rating

4.8
Home Sweet Home

Home Sweet Home (2013)

Horror, Thriller

Full description
quality   x264 web-rip hd web-dl dvdrip

Home.Sweet.Home.2013.WEBRip XViD juggs

Size 743.08 MB   4 seeders     Added 2013-05-20 20:17:37

Stream torrent
Starting‥ You need BitLord! Get it from BitLord.com
To download or stream you need BitLord. Visit them at BitLord.com
Source : WEBiOS(Thanks)
 
http://www.imdb.com/title/tt2348394/

Format                                   : AVI
Format/Info                              : Audio Video Interleave
File size                                : 701 MiB
Duration                                 : 1h 21mn
Overall bit rate                         : 1 201 Kbps
Writing library                          : VirtualDub build 32842/release

Video
ID                                       : 0
Format                                   : MPEG-4 Visual
Format profile                           : Advanced Simple@L5
Format settings, BVOP                    : 2
Format settings, QPel                    : No
Format settings, GMC                     : No warppoints
Format settings, Matrix                  : Default (H.263)
Muxing mode                              : Packed bitstream
Codec ID                                 : XVID
Codec ID/Hint                            : XviD
Duration                                 : 1h 21mn
Bit rate                                 : 1 063 Kbps
Width                                    : 640 pixels
Height                                   : 272 pixels
Display aspect ratio                     : 2.35:1
Frame rate                               : 23.976 fps
Color space                              : YUV
Chroma subsampling                       : 4:2:0
Bit depth                                : 8 bits
Scan type                                : Progressive
Compression mode                         : Lossy
Bits/(Pixel*Frame)                       : 0.255
Stream size                              : 620 MiB (89%)
Writing library                          : XviD 1.2.0.dev47 (UTC 2006-11-01)

Audio
ID                                       : 1
Format                                   : MPEG Audio
Format version                           : Version 1
Format profile                           : Layer 3
Codec ID                                 : 55
Codec ID/Hint                            : MP3
Duration                                 : 1h 21mn
Bit rate mode                            : Constant
Bit rate                                 : 128 Kbps
Channel(s)                               : 2 channels
Sampling rate                            : 44.1 KHz
Compression mode                         : Lossy
Stream size                              : 74.7 MiB (11%)
Alignment                                : Split accross interleaves
Interleave, duration                     : 42 ms (1.00 video frame)
Interleave, preload duration             : 500 ms
Writing library                          : LAME3.99r
Encoding settings                        : -m s -V 4 -q 3 -lowpass 17 -b 128
 
image 
image 
image		
Home.Sweet.Home.2013.WEBRip XViD juggs/Home.Sweet.Home.2013.WEBRip XViD juggs.avi 734.62 MB
Home.Sweet.Home.2013.WEBRip XViD juggs/Torrent Downloaded From ExtraTorrent.com.txt 339 B
Home.Sweet.Home.2013.WEBRip XViD juggs/sample.avi 8.46 MB
Gathering some info...

Register and log in Isohunt and see no captcha anymore!

4000 symbols left
Hash c5652a98c1d28de98585364233e2898f66dd0545

Related torrents for "Home.Sweet.Home.2013.WEBRip XViD juggs"

Torrent search:

web-rip 2013