Balmorhea - All is Wild, All is Silent (2009) [EAC FLAC,CUE][A.C.U.M.]

Size 236.202 MB   14 seeders     Added 2013-05-20 20:58:37

Stream torrent
Starting‥ You need BitLord! Get it from 1BitLord.com
10
To download or stream you need BitLord. Visit them at BitLord.com
							Balmorhea - All is Wild, All is Silent (2009) [EAC FLAC,CUE][A.C.U.M.]
Balmorhea è un gruppo rock minimalista originario di Austin (Texas, Stati Uniti), fondato nel 2006 da Rob Lowe e Michael Muller.
La band ha prodotto 5 album full-length, l'ultimo dei quali Stranger è stato pubblicato negli Stati Uniti nell'ottobre 2012.
Le loro influenze maggiori provengono da Ludovico Einaudi, The Six Parts Seven, Claude Debussy, Ludwig van Beethoven, Rachel's, Gillian Welch, Max Richter, Arvo Pärt e John Cage.
Fonte: wikipedia
Scheda tecnica :
Gruppo : Balmorhea
Album : All is Wild, All is Silent
Anno : 2009
Genere : minimalista - post rock
Paese : USA
Band :
Rob Lowe - chitarra, pianoforte, melodica, banjo
Michael Muller - chitarra, banjo, pianoforte
Aisha Burns - violino
Dylan Rieck - violoncello
Travis Chapman - contrabbasso
Kendall Clark - percussioni
Songs :
01 - Settler
02 - March 4, 1831
03 - Harm and Boon
04 - Elegy
05 - Remembrance
06 - Coahuila
07 - Night in the Draw
08 - Truth
09 - November 1, 1832
EAC Log :
Exact Audio Copy V0.99 prebeta 5 from 4. May 2009

EAC extraction logfile from 11. June 2009, 15:44

Balmorhea / All is Wild, All is Silent

Used drive : SONY CD-RW CRX230EE Adapter: 0 ID: 0

Read mode : Secure
Utilize accurate stream : Yes
Defeat audio cache : Yes
Make use of C2 pointers : No

Read offset correction : 6
Overread into Lead-In and Lead-Out : No
Fill up missing offset samples with silence : Yes
Delete leading and trailing silent blocks : No
Null samples used in CRC calculations : Yes
Used interface : Installed external ASPI interface
Gap handling : Appended to previous track

Used output format : User Defined Encoder
Selected bitrate : 128 kBit/s
Quality : High
Add ID3 tag : No
Command line compressor : C:\Program Files\Exact Audio Copy\Flac\flac.exe
Additional command line options : -V -8 -T "artist=%a" -T "title=%t" -T "album=%g" -T "date=%y" -T "tracknumber=%n" -T "genre=%m" %s 


TOC of the extracted CD

 Track | Start | Length | Start sector | End sector 
 ---------------------------------------------------------
 1 | 0:00.00 | 6:39.20 | 0 | 29944 
 2 | 6:39.20 | 2:06.67 | 29945 | 39461 
 3 | 8:46.12 | 8:05.24 | 39462 | 75860 
 4 | 16:51.36 | 2:19.55 | 75861 | 86340 
 5 | 19:11.16 | 5:49.15 | 86341 | 112530 
 6 | 25:00.31 | 3:31.44 | 112531 | 128399 
 7 | 28:32.00 | 4:09.04 | 128400 | 147078 
 8 | 32:41.04 | 7:05.55 | 147079 | 179008 
 9 | 39:46.59 | 2:32.61 | 179009 | 190469 


Track 1

 Filename E:\FLAC\Balmorhea - All is Wild, All is Silent\01 - Settler.wav

 Pre-gap length 0:00:02.00

 Peak level 99.8 %
 Track quality 100.0 %
 Test CRC FE69225B
 Copy CRC FE69225B
 Track not present in AccurateRip database
 Copy OK

Track 2

 Filename E:\FLAC\Balmorhea - All is Wild, All is Silent\02 - March 4, 1831.wav

 Pre-gap length 0:00:03.24

 Peak level 98.8 %
 Track quality 100.0 %
 Test CRC A319FB40
 Copy CRC A319FB40
 Track not present in AccurateRip database
 Copy OK

Track 3

 Filename E:\FLAC\Balmorhea - All is Wild, All is Silent\03 - Harm and Boon.wav

 Pre-gap length 0:00:03.26

 Peak level 99.9 %
 Track quality 100.0 %
 Test CRC F1E8A343
 Copy CRC F1E8A343
 Track not present in AccurateRip database
 Copy OK

Track 4

 Filename E:\FLAC\Balmorhea - All is Wild, All is Silent\04 - Elegy.wav

 Pre-gap length 0:00:05.57

 Peak level 98.9 %
 Track quality 100.0 %
 Test CRC 32A3F458
 Copy CRC 32A3F458
 Track not present in AccurateRip database
 Copy OK

Track 5

 Filename E:\FLAC\Balmorhea - All is Wild, All is Silent\05 - Remembrance.wav

 Pre-gap length 0:00:03.57

 Peak level 98.9 %
 Track quality 100.0 %
 Test CRC 52DC0EB0
 Copy CRC 52DC0EB0
 Track not present in AccurateRip database
 Copy OK

Track 6

 Filename E:\FLAC\Balmorhea - All is Wild, All is Silent\06 - Coahuila.wav

 Pre-gap length 0:00:04.94

 Peak level 98.8 %
 Track quality 100.0 %
 Test CRC C472AF2D
 Copy CRC C472AF2D
 Track not present in AccurateRip database
 Copy OK

Track 7

 Filename E:\FLAC\Balmorhea - All is Wild, All is Silent\07 - Night in the Draw.wav

 Pre-gap length 0:00:02.29

 Peak level 98.9 %
 Track quality 99.9 %
 Test CRC BAED6147
 Copy CRC BAED6147
 Track not present in AccurateRip database
 Copy OK

Track 8

 Filename E:\FLAC\Balmorhea - All is Wild, All is Silent\08 - Truth.wav

 Pre-gap length 0:00:03.58

 Peak level 99.6 %
 Track quality 99.9 %
 Test CRC 54F7010B
 Copy CRC 54F7010B
 Track not present in AccurateRip database
 Copy OK

Track 9

 Filename E:\FLAC\Balmorhea - All is Wild, All is Silent\09 - November 1, 1832.wav

 Peak level 89.6 %
 Track quality 100.0 %
 Test CRC B702792E
 Copy CRC B702792E
 Track not present in AccurateRip database
 Copy OK


None of the tracks are present in the AccurateRip database

No errors occurred

End of status report
Balmorhea - All is Wild, All is Silent (2009) [EAC FLAC,CUE][A.C.U.M.]/01 - Settler.flac 40.249 MB
Balmorhea - All is Wild, All is Silent (2009) [EAC FLAC,CUE][A.C.U.M.]/02 - March 4, 1831.flac 11.02 MB
Balmorhea - All is Wild, All is Silent (2009) [EAC FLAC,CUE][A.C.U.M.]/03 - Harm and Boon.flac 46.359 MB
Gathering some info...

Register and log in Isohunt and see no captcha anymore!

4000 symbols left
Hash 7943082cf3c000e748144f20716241072a9aa414

Related torrents for "Balmorhea - All is Wild, All is Silent (2009) [EAC FLAC,CUE][A.C.U.M.]"

Torrent search:

2009 lossless lossless