imdb
rating

7.8
The Vampire Diaries

The Vampire Diaries (2009)

Drama, Fantasy, Horror, Romance, Thriller

Full description

The.Vampire.Diaries.S04E23.HDTV.XviD-Eng+Sub Ita-[iDN_CreW]

Size 355.47 MB   55 seeders     Added 2013-05-20 22:01:37

Stream torrent
Starting‥ You need BitLord! Get it from BitLord.com
To download or stream you need BitLord. Visit them at BitLord.com
							[font=Arial Black]The Vampire Diaries – Stagione 4 [/font]
[font=Arial Black]AVI Eng Sub Ita [/font]
[Font=Arial Black]Titolo: The Vampire DiariesAnno: 2012Nazionalità: USA Genere: horror, thriller, fantasyLingua: IngleseStagione: 4Episodi: 23Durata Episodio: 45 min ca (episodio)Ideatore: Kevin WilliamsonDistribuzione USA: The CW (dal 11 Ottobre 2012)Distribuzione ITALIA: Mya (dal 08 Novembre 2012)
[/font]
Nina Dobrev: Elena Gilbert/Katherine Pierce
Paul Wesley: Stefan Salvatore
Ian Somerhalder: Damon Salvatore
Steven R. McQueen: Jeremy Gilbert
Katerina Graham: Bonnie Bennett
Candice Accola: Caroline Forbes
Zach Roerig: Matt Donovan
Michael Trevino: Tyler Lockwood
Joseph Morgan: Klaus
Claire Holt: Rebekah
Grace Phipps: April
Daniel Gillies: Elijah
[Font=Arial Black] Finale della terza stagione, che lasciava intendere molto sulle sorti di Elena. In questa stagione ripartiamo proprio da lì, dove Elena si troverà di fronte ad una nuova scelta dolorosa. Appariranno nuovi personaggi, che siano buoni o cattivi questo ancora non lo so, ma di sicuro troveranno il modo per creare problemi a Stephen e Damon, sempre in acerrima lotta con l'amore per Elena. In una Mistic Falls dove molti segreti sono stati svelati, nuovi amori stanno per nascere, continue battaglia di sopravvivenza, inizia questo nuovo capitolo di una serie diventata ormai un cult, sia in America che in Italia. Buona visione!![/font] 
[Font=Arial Black]1 Growing Pains 
 2 Memorial
 3 The Rager
 4 The Five
 5 The Killer 
 6 We All Go a Little Mad Sometimes
 7 My Brother's Keeper
 8 We'll Always Have Bourbon Street
 9 O Come, All Ye Faithful
10 After School Special
11 Catch Me If You Can
12 A View to a Kill
13 Into the wild
14 Down the Rabbit Hole
15 Stand by Me
16 Bring It On
17 Because the Night
18 American Gothic
19 Pictures of You
20 The Originals
21 She's Come Undone
22 The walking dead
23 Graduation
[/font]
[Font=Arial Black]La quarta stagione sarà incentrata su Elena e sulla sua visione del mondo attraverso gli occhi da vampira, ci concentreremo molto sul suo personaggio, sui molti aspetti della sua personalità. Inoltre questo è l'anno in cui molti personaggi si diplomeranno e vedremo l'azione spostarsi in scenografie diverse. "E' stato un anno di 'conclusione', mentre il prossimo sarà tutto all'insegna di un nuovo inizio".
[/font]
Sottotitoli impressi a video (HardSub)
Programma usato: AVIRecomp
General
Complete name : The.Vampire.Diaries.S04E01.HDTV.XviD-Eng+Sub Ita-[iDN_CreW].avi
Format : AVI
Format/Info : Audio Video Interleave
File size : 340 MiB
Duration : 42mn 2s
Overall bit rate : 1 131 Kbps
Writing application : VirtualDubMod 1.5.10.2 (build 2542/release)
Writing library : VirtualDubMod build 2542/release
Video
Format : MPEG-4 Visual
Format profile : Streaming Video@L1
Format settings, BVOP : Yes
Format settings, QPel : No
Format settings, GMC : No warppoints
Format settings, Matrix : Default
Muxing mode : Packed bitstream
Codec ID : XVID
Codec ID/Hint : XviD
Duration : 42mn 2s
Bit rate : 990 Kbps
Width : 640 pixels
Height : 360 pixels
Display aspect ratio : 16/9
Frame rate : 23.976 fps
Resolution : 24 bits
Colorimetry : 4:2:0
Scan type : Progressive
Bits/(Pixel*Frame) : 0.179
Stream size : 298 MiB (88%)
Writing library : XviD 64
Audio
Format : MPEG Audio
Format version : Version 1
Format profile : Layer 3
Codec ID : 55
Codec ID/Hint : MP3
Duration : 42mn 2s
Bit rate mode : Variable
Bit rate : 128 Kbps
Channel(s) : 2 channels
Sampling rate : 48.0 KHz
Resolution : 16 bits
Stream size : 38.5 MiB (11%)
Alignment : Aligned on interleaves
Interleave, duration : 24 ms (0.58 video frame)
Interleave, preload duration : 490 ms
Writing library : LAME3.98.4
Ringrazio Badtv.it, movieplayer e wiki per informazioni e immagini, la crew AFG per la realizzazione del video, il gruppo ITASA per i sub
						
The.Vampire.Diaries.S04E23.HDTV.XviD-Eng+Sub Ita-[iDN_CreW]/iDN_CreW Leggimi.txt 294 B
The.Vampire.Diaries.S04E23.HDTV.XviD-Eng+Sub Ita-[iDN_CreW]/The.Vampire.Diaries.S04E23.HDTV.XviD-Eng+Sub Ita-[iDN_CreW].avi 355.469 MB
Gathering some info...

Register and log in Isohunt and see no captcha anymore!

4000 symbols left
Hash 7fdb4d52fd705620c2c64f135b74c77bef73c1ad

Related torrents for "The.Vampire.Diaries.S04E23.HDTV.XviD-Eng+Sub Ita-[iDN_CreW]"