Made

Made (2002)

Full description

Made In Jersey S01e08 - Doppio Processo.[Mux - XviD - Ita Mp3].italian.MIRCrew.avi

Size 326.462 MB   0 seeders     Added 2013-05-20 22:40:53

Stream torrent
Starting‥ You need BitLord! Get it from BitLord.com
To download or stream you need BitLord. Visit them at BitLord.com
							Made In Jersey S01e08 - Doppio Processo [Mux - XviD - Italian Mp3] MIRCrew [TNT Village]Mux by robbyrs
Titolo originale 	Made in Jersey
Paese 	Stati Uniti d'America
Anno 	2012
Formato 	serie TV
Genere 	legal drama
Stagioni 	1
Episodi 	8
Durata 	42 min (episodio)
Lingua originale 	inglese
Caratteristiche tecniche
Aspect ratio 	16:9
Risoluzione 	1080i
Colore 	colore
Audio 	Dolby Digital 5.1
Crediti
Ideatore 	Dana Calvo
Made in Jersey è una serie televisiva statunitense prodotta nel 2012.
Lo show, che vede protagonista Janet Montgomery, racconta le vicende di Martina Garretti, una giovane avvocatessa italoamericana di provincia, alle prese con la nuova vita lavorativa 
nella grande mela. La serie ha debuttato in prima visione assoluta negli Stati Uniti il 28 settembre 2012, trasmessa dalla CBS. In Italia è trasmessa da Fox Life dal 4 aprile 2013
 Janet Montgomery: Martina Garretti
 Kristoffer Polaha: Nolan Adams
 Kyle MacLachlan: Donovan Stark
 Megalyn Echikunwoke: Riley Prescott
 Toni Trucks: Cyndi Vega
 Erin Cummings: Bonnie Garretti
 Felix Solis: River Brody
Voci e personaggi
 Letizia Scifoni: Martina Garretti
 Andrea Lavagnino: Nolan Adams
 Antonio Sanna: Donovan Stark
 Domitilla D'Amico: Riley Prescott
 Alessia Amendola: Cyndi Vega
 Paolo Marchese: River Brody
Martina Garretti è una giovane ragazza del New Jersey, proveniente da una tradizionale famiglia italoamericana di colletti blu, che grazie alla sua intelligenza e caparbietà è riuscita a 
scalare la gerarchia sociale, diventando avvocatessa ed approdando in un prestigioso studio legale di New York. Le ricche scuole frequentate e l'educazione ricevuta non sono però riuscite a 
toglierle i suoi modi ed atteggiamenti da working class, motivo per cui gli altolocati colleghi di Manhattan mal vedono la nuova arrivata, accogliendola con molto scetticismo. 
Nonostante ciò, Martina riesce a tenere testa a tutti loro grazie alla sua tenacia e al sostengo della sua fin troppo ingombrante famiglia, rimanendo così fedele alle sue radici "da 
strada" in un ambiente spietato ed intimidatorio, e riuscendo al contempo a difendere nel migliore dei modi i suoi clienti.
DATI FILE:
General
Complete name : Made In Jersey S01e08 - Doppio Processo.[Mux - XviD - Ita Mp3].italian.MIRCrew.avi
Format : AVI
Format/Info : Audio Video Interleave
File size : 311 MiB
Duration : 41mn 49s
Overall bit rate : 1 041 Kbps
Video
ID : 0
Format : MPEG-4 Visual
Format profile : Simple@L3
Format settings, BVOP : Yes
Format settings, QPel : No
Format settings, GMC : No warppoints
Format settings, Matrix : Default (H.263)
Codec ID : XVID
Codec ID/Hint : XviD
Duration : 41mn 49s
Bit rate : 901 Kbps
Width : 688 pixels
Height : 384 pixels
Display aspect ratio : 16:9
Frame rate : 25.000 fps
Color space : YUV
Chroma subsampling : 4:2:0
Bit depth : 8 bits
Scan type : Progressive
Bits/(Pixel*Frame) : 0.136
Stream size : 269 MiB (87%)
Audio
ID : 1
Format : MPEG Audio
Format version : Version 1
Format profile : Layer 3
Mode : Joint stereo
Mode extension : MS Stereo
Codec ID : 55
Codec ID/Hint : MP3
Duration : 41mn 49s
Bit rate mode : Constant
Bit rate : 128 Kbps
Channel(s) : 2 channels
Sampling rate : 44.1 KHz
Stream size : 38.3 MiB (12%)
Alignment : Aligned on interleaves
Interleave, duration : 26 ms (0.65 video frame)
Writing library : LAME3.97
						
Made In Jersey S01e08 - Doppio Processo.[Mux - XviD - Ita Mp3].italian.MIRCrew.avi 326.462 MB
Gathering some info...

Register and log in Isohunt and see no captcha anymore!

4000 symbols left
Hash 6b0648659ac3411cfd5ce6e76175363f731dc1f5

Related torrents for "Made In Jersey S01e08 - Doppio Processo.[Mux - XviD - Ita Mp3].italian.MIRCrew.avi"

Torrent search:

italian season 01 episode 08