Fast.And.Furious.6.2013.CAM.V2.XViD-FANTA

Size 2.167 GB   0 seeders     Added 2013-05-21 01:16:34

Stream torrent
Starting‥ You need BitLord! Get it from 1BitLord.com
To download or stream you need BitLord. Visit them at BitLord.com
 
http://www.imdb.com/title/tt1905041/



Plot: Agent Luke Hobbs enlists Dominic Toretto and his team to bring down former Special Ops soldier Owen Shaw, leader of a unit specializing in vehicular warfare. 



Director:
 Justin Lin 

Writers:
 Chris Morgan (screenplay), Gary Scott Thompson (characters) 

Stars:
 Dwayne Johnson, Vin Diesel, Paul Walker

Genres:
  Action |  Crime |  Thriller 

Country:
 USA 

Language:
 English 





Format                                   : AVI
Format/Info                              : Audio Video Interleave
File size                                : 1.97 GiB
Duration                                 : 2h 0mn
Overall bit rate                         : 2 332 Kbps
Writing application                      : VirtualDubMod 1.5.10.2 (build 2542/release)
Writing library                          : VirtualDub build 32842/release

Video
ID                                       : 0
Format                                   : MPEG-4 Visual
Format profile                           : Advanced Simple@L5
Format settings, BVOP                    : 1
Format settings, QPel                    : No
Format settings, GMC                     : No warppoints
Format settings, Matrix                  : Default (H.263)
Muxing mode                              : Packed bitstream
Codec ID                                 : XVID
Codec ID/Hint                            : XviD
Duration                                 : 2h 0mn
Bit rate                                 : 2 120 Kbps
Width                                    : 680 pixels
Height                                   : 284 pixels
Display aspect ratio                     : 2.40:1
Frame rate                               : 50.000 fps
Color space                              : YUV
Chroma subsampling                       : 4:2:0
Bit depth                                : 8 bits
Scan type                                : Progressive
Compression mode                         : Lossy
Bits/(Pixel*Frame)                       : 0.220
Stream size                              : 1.79 GiB (91%)
Writing library                          : XviD 64

Audio
ID                                       : 1
Format                                   : AC-3
Format/Info                              : Audio Coding 3
Mode extension                           : CM (complete main)
Format settings, Endianness              : Big
Codec ID                                 : 2000
Duration                                 : 2h 0mn
Bit rate mode                            : Constant
Bit rate                                 : 192 Kbps
Channel(s)                               : 2 channels
Channel positions                        : Front: L R
Sampling rate                            : 48.0 KHz
Bit depth                                : 16 bits
Compression mode                         : Lossy
Stream size                              : 166 MiB (8%)
Alignment                                : Split accross interleaves
Interleave, duration                     : 20 ms (1.00 video frame)
Interleave, preload duration             : 500 ms



info

 
image



screens




    	image
    	image
    	image
    	image
    	image
    	image		
Fast.And.Furious.6.2013.CAM.V2.XViD-FANTA/Fast.And.Furious.6.2013.CAM.V2.XViD-FANTA-SAMPLE.avi 54.742 MB
Fast.And.Furious.6.2013.CAM.V2.XViD-FANTA/Fast.And.Furious.6.2013.CAM.V2.XViD-FANTA.avi 2.112 GB
Fast.And.Furious.6.2013.CAM.V2.XViD-FANTA/nf0.nfo 6.066 KB
Gathering some info...

Register and log in Isohunt and see no captcha anymore!

4000 symbols left
Hash 0e468f63429d35a9fa375171cc6272d3841f0c7b

Related torrents for "Fast.And.Furious.6.2013.CAM.V2.XViD-FANTA"

Torrent search:

cam 2013