imdb
rating

6.2
Fast and Furious

Fast and Furious (1939)

Comedy, Crime, Mystery

Full description
quality   dvd telesync x264 hd bd cam dvdrip

Fast and Furious 6.mp4

Size 584.82 MB   0 seeders     Added 2013-05-21 02:00:36

Stream torrent
Starting‥ You need BitLord! Get it from BitLord.com
10
To download or stream you need BitLord. Visit them at BitLord.com
							Fast and Furious 6.mp4 CAM
General
Format : MPEG-4
Format profile : Base Media
Codec ID : isom
File size : 558 MiB
Duration : 2h 0mn
Overall bit rate : 646 Kbps
Writing application : Lavf54.32.101
Video
ID : 1
Format : AVC
Format/Info : Advanced Video Codec
Format profile : High@L3.1
Format settings, CABAC : Yes
Format settings, ReFrames : 4 frames
Codec ID : avc1
Codec ID/Info : Advanced Video Coding
Duration : 2h 0mn
Bit rate mode : Variable
Bit rate : 540 Kbps
Width : 720 pixels
Height : 404 pixels
Display aspect ratio : 16:9
Original display aspect ratio : 16:9
Frame rate mode : Constant
Frame rate : 50.000 fps
Color space : YUV
Chroma subsampling : 4:2:0
Bit depth : 8 bits
Scan type : Progressive
Bits/(Pixel*Frame) : 0.037
Stream size : 466 MiB (84%)
Writing library : x264 core 128 r2216
Audio
ID : 2
Format : AAC
Format/Info : Advanced Audio Codec
Format profile : LC
Codec ID : 40
Duration : 2h 0mn
Bit rate mode : Constant
Bit rate : 96.0 Kbps
Channel(s) : 2 channels
Channel positions : Front: L R
Sampling rate : 48.0 KHz
Compression mode : Lossy
Delay relative to video : 40ms
Stream size : 82.9 MiB (15%)
Plot
Following their successful Rio heist, Dominic Toretto and his crew of professional criminals have retired around the world: Dominic lives with Elena; his sister Mia and Brian O'Conner have had a son, Jack; Gisele and Han have moved to Tokyo; and Roman and Tej live in luxury.
Diplomatic Security Service (DSS) agent Luke Hobbs and his partner Riley investigate the destruction of a Russian military convoy, believing former British Special Forces soldier Owen Shaw and his crew are responsible. Hobbs tracks down Dominic and requests his help in bringing Shaw down; Dominic agrees when Hobbs presents him with a photo of Dominic's former girlfriend Letty Ortiz, whom he thought was dead. Dominic gathers his crew together and they accept the mission in exchange for full amnesty for their past crimes, which will allow them to return home to the United States; Mia and Elena remain with Jack.
The crew are led to Shaw's London hideout by one of his henchmen, but it is revealed to be a trap intended to distract the crew and police while Shaw's crew performs a heist elsewhere. Shaw flees by car, detonating his hideout behind him and disabling most of the police, leaving Dominic, Brian, Tej, Han, Gisele, Hobbs and Riley to pursue him. Letty arrives to help Shaw, and shoots Dominic without hesitation before escaping. Back at their headquarters, Hobbs tells Dominic's crew that Shaw is stealing components to create a Nightshade device which can disable power in an entire region; he intends to sell it to the highest bidder. Meanwhile, Shaw's investigation into the opposing crew reveals Letty's relationship with Dominic, but she is revealed to be suffering from amnesia.
* enjoy ...
						
Fast and Furious 6.mp4 584.82 MB
Gathering some info...

Register and log in Isohunt and see no captcha anymore!

4000 symbols left
Hash 3e4a8860d4b53651dd55bedb19404d90f7489dfc

Related torrents for "Fast and Furious 6.mp4"