The Gerber Syndrome-wk3d.mp4

Size 877.968 MB   46 seeders     Added 2013-05-21 07:08:34

Stream torrent
Starting‥ You need BitLord! Get it from 1BitLord.com
To download or stream you need BitLord. Visit them at BitLord.com

The Gerber's Syndrome is an contagious viral disease that was discovered in
Germany in 2008 and spread all over the world. It is extremely contagious, fast
spreading, and deadly. This syndrome is very difficult to spot, because it's
like a normal dose of the flu, with all the subsequent symptoms that most of us
are familiar with; but later, the virus affects the brain cells causing serious
damage to the central nervous system. A TV crew is making a documentary about
the disease and the way society is coping with it by documenting the stories of
three people who are dealing with Gerber's Syndrome: Melissa is a young girl
that has been infected, Doctor Ricardi is the doctor who is following her and
Luigi is a member of the CS, the security organization that has to deal with
infected people. The TV crew follow the lives of this characters, becoming
characters themselves since they are constantly in the action. We see how the
syndrome progress in Melissa and the way her family and Doctor.Spoken language:  Italian
HardCoded Subs:  English
Horror | Drama | Sci-FiSpoken language:  Italian
HardCoded Subs:  EnglishinfoFormat                                   : MPEG-4
Format profile                           : Base Media / Version 2
Codec ID                                 : mp42
File size                                : 837 MiB
Duration                                 : 1h 25mn
Overall bit rate mode                    : Variable
Overall bit rate                         : 1 363 Kbps
Writing application                      : HandBrake 0.9.8 2012071700
Video
ID                                       : 1
Format                                   : AVC
Format/Info                              : Advanced Video Codec
Format profile                           : Main@L3.0
Format settings, CABAC                   : Yes
Format settings, ReFrames                : 4 frames
Codec ID                                 : avc1
Codec ID/Info                            : Advanced Video Coding
Duration                                 : 1h 25mn
Bit rate mode                            : Variable
Bit rate                                 : 1 200 Kbps
Width                                    : 640 pixels
Height                                   : 360 pixels
Display aspect ratio                     : 16:9
Frame rate mode                          : Constant
Frame rate                               : 25.000 fps
Color space                              : YUV
Chroma subsampling                       : 4:2:0
Bit depth                                : 8 bits
Scan type                                : Progressive
Bits/(Pixel*Frame)                       : 0.208
Stream size                              : 737 MiB (88%)
Writing library                          : x264 core 120
Audio
ID                                       : 2
Format                                   : AAC
Format/Info                              : Advanced Audio Codec
Format profile                           : LC
Codec ID                                 : 40
Duration                                 : 1h 25mn
Bit rate mode                            : Variable
Bit rate                                 : 160 Kbps
Maximum bit rate                         : 252 Kbps
Channel(s)                               : 2 channels
Channel positions                        : Front: L R
Sampling rate                            : 44.1 KHz
Compression mode                         : Lossy
Delay relative to video                  : 80ms
Stream size                              : 98.3 MiB (12%)
The Gerber Syndrome-wk3d.mp4 877.968 MB
Gathering some info...

Register and log in Isohunt and see no captcha anymore!

4000 symbols left
Hash 7a5292141dd10b08f6d3c60f0fdde3849b3d9950