imdb
rating

5.3
A Good Day to Die Hard

A Good Day to Die Hard (2013)

Action, Thriller

Full description

A.Good.Day.to.Die.Hard.2013.RERIP.DVDRip.XviD-SPARKS

Size 734.237 MB   0 seeders     Added 2013-05-21 14:50:39

Stream torrent
Starting‥ You need BitLord! Get it from 1BitLord.com
To download or stream you need BitLord. Visit them at BitLord.com
http://www.imdb.com/title/tt1606378/
John McClane travels to Russia to help out his seemingly wayward son, Jack, only to discover that Jack is a CIA operative working to prevent a nuclear-weapons heist, causing the father and son to team up against underworld forces. 
Director:
John Moore
Writers:
Skip Woods, Roderick Thorp (certain original characters)
Stars:
Bruce Willis, Jai Courtney, Sebastian Koch
Genres:
Action | Crime | Thriller 
Country:
USA
Format : AVI
Format/Info : Audio Video Interleave
File size : 700 MiB
Duration : 1h 37mn
Overall bit rate mode : Variable
Overall bit rate : 1 003 Kbps
Writing application : VirtualDubMod 1.5.10.2 (build 2540/release)
Writing library : VirtualDubMod build 2540/release
Video
ID : 0
Format : MPEG-4 Visual
Format profile : Advanced Simple@L5
Format settings, BVOP : 2
Format settings, QPel : No
Format settings, GMC : No warppoints
Format settings, Matrix : Default (H.263)
Codec ID : XVID
Codec ID/Hint : XviD
Duration : 1h 37mn
Bit rate : 864 Kbps
Width : 640 pixels
Height : 352 pixels
Display aspect ratio : 16:9
Frame rate : 23.976 fps
Color space : YUV
Chroma subsampling : 4:2:0
Bit depth : 8 bits
Scan type : Progressive
Compression mode : Lossy
Bits/(Pixel*Frame) : 0.160
Stream size : 603 MiB (86%)
Writing library : XviD 61
Audio
ID : 1
Format : MPEG Audio
Format version : Version 1
Format profile : Layer 3
Mode : Joint stereo
Mode extension : MS Stereo
Codec ID : 55
Codec ID/Hint : MP3
Duration : 1h 37mn
Bit rate mode : Variable
Bit rate : 128 Kbps
Channel(s) : 2 channels
Sampling rate : 48.0 KHz
Compression mode : Lossy
Stream size : 88.1 MiB (13%)
Alignment : Aligned on interleaves
Interleave, duration : 24 ms (0.58 video frame)
Interleave, preload duration : 127 ms
A.Good.Day.to.Die.Hard.2013.RERIP.DVDRip.XviD-SPARKS/sparks-gdtdh-xvid.rerip.avi 734.233 MB
A.Good.Day.to.Die.Hard.2013.RERIP.DVDRip.XviD-SPARKS/sparks-gdtdh-xvid.rerip.nfo 4.391 KB
A.Good.Day.to.Die.Hard.2013.RERIP.DVDRip.XviD-SPARKS/Torrent Downloaded From ExtraTorrent.com.txt 353 B
Gathering some info...

Register and log in Isohunt and see no captcha anymore!

4000 symbols left
Hash 2b1b3640562f811c483bcc7eadc69c9eb592a6e3

Related torrents for "A.Good.Day.to.Die.Hard.2013.RERIP.DVDRip.XviD-SPARKS"

Torrent search:

dvdrip 2013