imdb
rating

4.6
The Prince

The Prince (2014)

Action, Thriller

Full description
quality   cam dvdrip hd bd hdtv x264

Daddy Yankee Ft. Prince Royce - Ven Conmigo [Music Video] 720p [Sbyky].mp4

Size 104.02 MB   3 seeders     Added 2013-05-21 17:39:52

Stream torrent
Starting‥ You need BitLord! Get it from BitLord.com
To download or stream you need BitLord. Visit them at BitLord.com
							
General
Complete name : Daddy Yankee Ft. Prince Royce - Ven Conmigo [Music Video] 720p [Sbyky].mp4
Format : MPEG-4
Format profile : Base Media / Version 2
Codec ID : mp42
File size : 99.2 MiB
Duration : 4mn 53s
Overall bit rate mode : Variable
Overall bit rate : 2 839 Kbps
Encoded date : UTC 2013-04-08 08:26:55
Tagged date : UTC 2013-04-08 08:26:55
Video
ID : 1
Format : AVC
Format/Info : Advanced Video Codec
Format profile : High@L3.1
Format settings, CABAC : Yes
Format settings, ReFrames : 1 frame
Format settings, GOP : M=1, N=60
Codec ID : avc1
Codec ID/Info : Advanced Video Coding
Duration : 4mn 53s
Bit rate : 2 645 Kbps
Maximum bit rate : 7 020 Kbps
Width : 1 280 pixels
Height : 720 pixels
Display aspect ratio : 16:9
Frame rate mode : Constant
Frame rate : 29.970 fps
Color space : YUV
Chroma subsampling : 4:2:0
Bit depth : 8 bits
Scan type : Progressive
Bits/(Pixel*Frame) : 0.096
Stream size : 92.4 MiB (93%)
Tagged date : UTC 2013-04-08 08:27:02
Audio
ID : 2
Format : AAC
Format/Info : Advanced Audio Codec
Format profile : LC
Codec ID : 40
Duration : 4mn 53s
Bit rate mode : Variable
Bit rate : 192 Kbps
Maximum bit rate : 202 Kbps
Channel(s) : 2 channels
Channel positions : Front: L R
Sampling rate : 44.1 KHz
Compression mode : Lossy
Stream size : 6.71 MiB (7%)
Title : IsoMedia File Produced by Google, 5-11-2011
Encoded date : UTC 2013-04-08 08:26:59
Tagged date : UTC 2013-04-08 08:27:02
Shared By Sbyky
Daddy Yankee Ft. Prince Royce - Ven Conmigo [Music Video] 720p [Sbyky].mp4 104.02 MB
Gathering some info...

Register and log in Isohunt and see no captcha anymore!

4000 symbols left
Hash e642479d553545991e75aee324fe9f07cb13b0a5

Related torrents for "Daddy Yankee Ft. Prince Royce - Ven Conmigo [Music Video] 720p [Sbyky].mp4"

Torrent search:

hd