Coldplay Ft. Rihanna - Princess Of China [Music Video] 1080p [Sbyky].mp4

Size 103.259 MB   0 seeders     Added 2013-05-21 17:50:52

Stream torrent
Starting‥ You need BitLord! Get it from BitLord.com
To download or stream you need BitLord. Visit them at BitLord.com
General
Complete name : Coldplay Ft. Rihanna - Princess Of China [Music Video] 1080p [Sbyky].mp4
Format : MPEG-4
Format profile : Base Media / Version 2
Codec ID : mp42
File size : 98.5 MiB
Duration : 3mn 34s
Overall bit rate mode : Variable
Overall bit rate : 3 846 Kbps
Encoded date : UTC 2013-04-08 03:04:59
Tagged date : UTC 2013-04-08 03:04:59
Video
ID : 1
Format : AVC
Format/Info : Advanced Video Codec
Format profile : [email protected]
/*  */

Format settings, CABAC : Yes
Format settings, ReFrames : 1 frame
Codec ID : avc1
Codec ID/Info : Advanced Video Coding
Duration : 3mn 34s
Bit rate : 3 651 Kbps
Maximum bit rate : 13.7 Mbps
Width : 1 920 pixels
Height : 1 080 pixels
Display aspect ratio : 16:9
Frame rate mode : Constant
Frame rate : 23.976 fps
Color space : YUV
Chroma subsampling : 4:2:0
Bit depth : 8 bits
Scan type : Progressive
Bits/(Pixel*Frame) : 0.073
Stream size : 93.5 MiB (95%)
Tagged date : UTC 2013-04-08 03:05:06
Audio
ID : 2
Format : AAC
Format/Info : Advanced Audio Codec
Format profile : LC
Codec ID : 40
Duration : 3mn 34s
Bit rate mode : Variable
Bit rate : 192 Kbps
Maximum bit rate : 201 Kbps
Channel(s) : 2 channels
Channel positions : Front: L R
Sampling rate : 44.1 KHz
Compression mode : Lossy
Stream size : 4.92 MiB (5%)
Title : IsoMedia File Produced by Google, 5-11-2011
Encoded date : UTC 2013-04-08 03:05:03
Tagged date : UTC 2013-04-08 03:05:06
Shared By Sbyky
Coldplay Ft. Rihanna - Princess Of China [Music Video] 1080p [Sbyky].mp4 103.259 MB
Gathering some info...

Register and log in Isohunt and see no captcha anymore!

4000 symbols left
Hash 37adb71ed40c39d246c85eec5e1d2f3683cf95d7

Related torrents for "Coldplay Ft. Rihanna - Princess Of China [Music Video] 1080p [Sbyky].mp4"