Daddy Yankee Ft. Prince Royce - Ven Conmigo [Music Video] 1080p [Sbyky].mp4

Size 199.121 MB   0 seeders     Added 2013-05-21 18:46:37

Stream torrent
Starting‥ You need BitLord! Get it from 1BitLord.com
To download or stream you need BitLord. Visit them at BitLord.com
[IMG]image[/IMG]

General
Complete name                            : Daddy Yankee Ft. Prince Royce - Ven Conmigo [Music Video] 1080p [Sbyky].mp4
Format                                   : MPEG-4
Format profile                           : Base Media / Version 2
Codec ID                                 : mp42
File size                                : 190 MiB
Duration                                 : 4mn 53s
Overall bit rate mode                    : Variable
Overall bit rate                         : 5 435 Kbps
Encoded date                             : UTC 2013-04-08 08:27:47
Tagged date                              : UTC 2013-04-08 08:27:47

Video
ID                                       : 1
Format                                   : AVC
Format/Info                              : Advanced Video Codec
Format profile                           : High@L4.0
Format settings, CABAC                   : Yes
Format settings, ReFrames                : 1 frame
Format settings, GOP                     : M=1, N=60
Codec ID                                 : avc1
Codec ID/Info                            : Advanced Video Coding
Duration                                 : 4mn 53s
Bit rate                                 : 5 240 Kbps
Maximum bit rate                         : 12.9 Mbps
Width                                    : 1 920 pixels
Height                                   : 1 080 pixels
Display aspect ratio                     : 16:9
Frame rate mode                          : Constant
Frame rate                               : 29.970 fps
Color space                              : YUV
Chroma subsampling                       : 4:2:0
Bit depth                                : 8 bits
Scan type                                : Progressive
Bits/(Pixel*Frame)                       : 0.084
Stream size                              : 183 MiB (96%)
Tagged date                              : UTC 2013-04-08 08:28:13

Audio
ID                                       : 2
Format                                   : AAC
Format/Info                              : Advanced Audio Codec
Format profile                           : LC
Codec ID                                 : 40
Duration                                 : 4mn 53s
Bit rate mode                            : Variable
Bit rate                                 : 192 Kbps
Maximum bit rate                         : 202 Kbps
Channel(s)                               : 2 channels
Channel positions                        : Front: L R
Sampling rate                            : 44.1 KHz
Compression mode                         : Lossy
Stream size                              : 6.71 MiB (4%)
Title                                    : IsoMedia File Produced by Google, 5-11-2011
Encoded date                             : UTC 2013-04-08 08:28:07
Tagged date                              : UTC 2013-04-08 08:28:13

Shared By Sbyky
[IMG]image[/IMG]
[IMG]image[/IMG]		
Daddy Yankee Ft. Prince Royce - Ven Conmigo [Music Video] 1080p [Sbyky].mp4 199.121 MB
Gathering some info...

Register and log in Isohunt and see no captcha anymore!

4000 symbols left
Hash 3e94547b4f75b9fd88cb853f3b8c1ec3f186c9d2