imdb
rating

7.5
Las Vegas

Las Vegas (2003)

Drama

Full description

CSI Las Vegas S13x11.Morte In Diretta.mux.Ita.MIRCrew.avi Verified

Size 456.05 MB   2 seeders     Added 2013-05-21 19:58:35

Stream torrent
Starting‥ You need BitLord! Get it from 1BitLord.com
To download or stream you need BitLord. Visit them at BitLord.com
							CSI - Las Vegas S13e11 Morte In Diretta [Mux - DivX - Italian Mp3]MIRCrew [TNT Village]Mux by robbyrsEpisodi presenti:
 CSI - Las Vegas S13e11 Morte In Diretta
La stagione 13 di CSI riprende con una premiere mozzafiato che si riaggancia ai numerosi cliffhanger che avevano chiuso la scorsa stagione. In primis il rapimento della nipote di Russell 
che sconvolgerà il protagonista portandolo a mostrarci lati del suo carattere del tutto inaspettati rispetto alla sua immagine di uomo razionale e controllato.
Avevamo lasciato Finn (Elisabeth Shue) ad un appuntamento con un collega; al termine del quale incontra qualcuno che sembrerebbe non avere buone intenzioni .
Riconfermato anche Nick (George Eads), che dopo aver lasciato bruscamente la squadra investigativa si ritrova ad affrontare da solo uno dei momenti più bassi della sua carriera e della 
sua vita privata.
Scopriremo anche come si concluderà la vicenda del “recurring” McKeen (Conor O’Farrell), arrestato nello scorso season finale e coinvolto nel rapimento della nipotina di Russel e 
dell’agguato ad Ecklie.
Ted Danson, Elisabeth Shue, George Eads, Jorja Fox, Eric Szmanda, Robert David Hall, Wallace Langham.......
DATI FILE:
Complete name : CSI Las Vegas S13x11.Morte In Diretta.mux.Ita.MIRCrew.avi
Format : AVI
Format/Info : Audio Video Interleave
File size : 435 MiB
Duration : 41mn 49s
Overall bit rate : 1 454 Kbps
Writing library : MPlayer
Video
ID : 0
Format : MPEG-4 Visual
Format profile : Advanced Simple@L5
Format settings, BVOP : Yes
Format settings, QPel : No
Format settings, GMC : No warppoints
Format settings, Matrix : Default (H.263)
Codec ID : XVID
Codec ID/Hint : XviD
Duration : 41mn 49s
Bit rate : 1 313 Kbps
Width : 720 pixels
Height : 404 pixels
Display aspect ratio : 16:9
Frame rate : 25.000 fps
Color space : YUV
Chroma subsampling : 4:2:0
Bit depth : 8 bits
Scan type : Progressive
Bits/(Pixel*Frame) : 0.181
Stream size : 393 MiB (90%)
Writing library : XviD 1.1.2 (UTC 2006-11-01)
Audio
ID : 1
Format : MPEG Audio
Format version : Version 1
Format profile : Layer 3
Mode : Joint stereo
Mode extension : MS Stereo
Codec ID : 55
Codec ID/Hint : MP3
Duration : 41mn 49s
Bit rate mode : Constant
Bit rate : 128 Kbps
Channel(s) : 2 channels
Sampling rate : 44.1 KHz
Video delay : 40ms
Stream size : 38.3 MiB
Alignment : Aligned on interleaves
Interleave, duration : 26 ms (0.65 video frame)
Interleave, preload duration : 809 ms	
CSI Las Vegas S13x11.Morte In Diretta.mux.Ita.MIRCrew.avi 456.05 MB
Gathering some info...

Register and log in Isohunt and see no captcha anymore!

4000 symbols left
Hash 1059b1e62b329fccee08e463aa3bddba1a3cf3da

Related torrents for "CSI Las Vegas S13x11.Morte In Diretta.mux.Ita.MIRCrew.avi"

Torrent search:

italian