imdb
rating

7.6
Tell No One

Tell No One (2006)

Crime, Drama, Mystery, Thriller

Full description
quality   x264 hd bd dvdrip h264 fullhd

Tell No One [2006] 720p BRRip H264 AC3 - CODY

Size 2.081 GB   0 seeders     Added 2013-05-22 01:47:35

Stream torrent
Starting‥ You need BitLord! Get it from 1BitLord.com
7.5
To download or stream you need BitLord. Visit them at BitLord.com
General
Complete name                            : Tell No One [2006] 720p BRRip H264 AC3 - CODY.mp4
Format                                   : MPEG-4
Format profile                           : Base Media
Codec ID                                 : isom
File size                                : 1.94 GiB
Duration                                 : 2h 10mn
Overall bit rate mode                    : Variable
Overall bit rate                         : 2 119 Kbps
Encoded date                             : UTC 2013-04-18 08:51:26

Video
ID                                       : 1
Format                                   : AVC
Format/Info                              : Advanced Video Codec
Format profile                           : High@L4.1
Format settings, CABAC                   : Yes
Format settings, ReFrames                : 5 frames
Codec ID                                 : avc1
Codec ID/Info                            : Advanced Video Coding
Duration                                 : 2h 10mn
Bit rate mode                            : Variable
Bit rate                                 : 1 670 Kbps
Maximum bit rate                         : 20.0 Mbps
Width                                    : 1 280 pixels
Height                                   : 544 pixels
Display aspect ratio                     : 2.35:1
Frame rate mode                          : Constant
Frame rate                               : 24.000 fps
Color space                              : YUV
Chroma subsampling                       : 4:2:0
Bit depth                                : 8 bits
Scan type                                : Progressive
Bits/(Pixel*Frame)                       : 0.100
Stream size                              : 1.53 GiB (79%)
Writing library                          : x264 core 130 r2273 b3065e6
Encoding settings                        : rc=2pass
Color primaries                          : Generic film

Audio
ID                                       : 2
Format                                   : AC-3
Format/Info                              : Audio Coding 3
Mode extension                           : CM (complete main)
Format settings, Endianness              : Big
Codec ID                                 : ac-3
Duration                                 : 2h 10mn
Bit rate mode                            : Constant
Bit rate                                 : 448 Kbps
Channel(s)                               : 6 channels
Channel positions                        : Front: L C R, Side: L R, LFE
Sampling rate                            : 48.0 KHz
Bit depth                                : 16 bits
Compression mode                         : Lossy
Delay relative to video                  : 125ms
Stream size                              : 420 MiB (21%)


Audio language                           : French

IMDB link:                                 http://www.imdb.com/title/tt0362225/

Subtitles included                       : English, Romanian

Please seed at least 1,5:1 . This way this torrent has a chance to survive !

Thanks . Enjoy !!	
				
Tell No One [2006] 720p BRRip H264 AC3 - CODY/Cover.jpg 55.469 KB
Tell No One [2006] 720p BRRip H264 AC3 - CODY/Info_by_Cody.txt 7.854 KB
Tell No One [2006] 720p BRRip H264 AC3 - CODY/Tell No One [2006] 720p BRRip H264 AC3 - CODY.English.srt 75.667 KB
Gathering some info...

Register and log in Isohunt and see no captcha anymore!

4000 symbols left
Hash 54ff81fb62fbe2afee37fe5f4d4146eb17ee03bc

Related torrents for "Tell No One [2006] 720p BRRip H264 AC3 - CODY"

Torrent search:

2006 h264 hd bd