imdb
rating

5.4
12 Rounds 2: Reloaded

12 Rounds 2: Reloaded (2013)

Action, Adventure

Full description

12.Rounds.2.Reloaded.2013.UNRATED.HDRip.XVID.AC3.HQ.Hive-CM8

Size 1.422 GB   29 seeders     Added 2013-05-22 04:50:51

Stream torrent
Starting‥ You need BitLord! Get it from BitLord.com
To download or stream you need BitLord. Visit them at BitLord.com
12.Rounds.2.Reloaded.2013.UNRATED.HDRip.XVID.AC3.HQ.Hive-CM8
Source: 720p Web-Dl
Encode:
brightness,contrast,rgb adjusted as needed
added sharpness and denoise
got very nice
enjoy
Video: 720x400 @bitrate 1600 2pass
Audio: English AC3 5.1 @384
Sample: yes included
Subs: yes english in srt /subs
http://www.imdb.com/title/tt2317524/
General
Complete name : 12.Rounds.2.Reloaded.2013.UNRATED.HDRip.XVID.AC3.HQ.Hive-CM8.avi
Format : AVI
Format/Info : Audio Video Interleave
File size : 1.31 GiB
Duration : 1h 34mn
Overall bit rate : 1 993 Kbps
Writing application : Nandub v1.0rc2
Writing library : Nandub build 1853/release
Video
ID : 0
Format : MPEG-4 Visual
Format profile : Advanced Simple@L5
Format settings, BVOP : 2
Format settings, QPel : Yes
Format settings, GMC : No warppoints
Format settings, Matrix : Default (H.263)
Muxing mode : Packed bitstream
Codec ID : XVID
Codec ID/Hint : XviD
Duration : 1h 34mn
Bit rate : 1 600 Kbps
Width : 720 pixels
Height : 400 pixels
Display aspect ratio : 16:9
Frame rate : 23.976 fps
Color space : YUV
Chroma subsampling : 4:2:0
Bit depth : 8 bits
Scan type : Progressive
Compression mode : Lossy
Bits/(Pixel*Frame) : 0.232
Stream size : 1.05 GiB (80%)
Writing library : XviD 1.2.1 (UTC 2008-12-04)
Audio
ID : 1
Format : AC-3
Format/Info : Audio Coding 3
Mode extension : CM (complete main)
Format settings, Endianness : Big
Codec ID : 2000
Duration : 1h 34mn
Bit rate mode : Constant
Bit rate : 384 Kbps
Channel(s) : 6 channels
Channel positions : Front: L C R, Side: L R, LFE
Sampling rate : 48.0 KHz
Bit depth : 16 bits
Compression mode : Lossy
Stream size : 259 MiB (19%)
Alignment : Split accross interleaves
Interleave, duration : 42 ms (1.00 video frame)
Interleave, preload duration : 500 ms
Plot:
Nick Malloy portrays an Emergency Medical Technician (EMT) who finds himself caught in a deadly 12-round game of cat and mouse with a vigilante tied to the paramedic's past. With little time to spare and his wife's life hanging in the balance, the EMT must figure out why he's been chosen to be the pawn in this maniac's game before it's too late. 
Cast:
Brian Markinson ... Heller
Randy Orton ... Nick Malloy 
Sean Rogerson ... Detective Sykes
Patrick Gilmore ... Simmons
[video=http://www.youtube.com/watch?v=6aEoFLc
12.Rounds.2.Reloaded.2013.UNRATED.HDRip.XVID.AC3.HQ.Hive-CM8/sample.avi 13.607 MB
12.Rounds.2.Reloaded.2013.UNRATED.HDRip.XVID.AC3.HQ.Hive-CM8/12.Rounds.2.Reloaded.2013.UNRATED.HDRip.XVID.AC3.HQ.Hive-CM8.nfo 4.053 KB
12.Rounds.2.Reloaded.2013.UNRATED.HDRip.XVID.AC3.HQ.Hive-CM8/12.Rounds.2.Reloaded.2013.UNRATED.HDRip.XVID.AC3.HQ.Hive-CM8.avi 1.409 GB
Gathering some info...

Register and log in Isohunt and see no captcha anymore!

4000 symbols left
Hash 999c73160a00c55a6188f8f5c99977f8794b2f9d

Related torrents for "12.Rounds.2.Reloaded.2013.UNRATED.HDRip.XVID.AC3.HQ.Hive-CM8"

Torrent search:

hd 2013