imdb
rating

5.7
Identity Thief

Identity Thief (2013)

Comedy, Crime

Full description
quality   dvdrip hd telesync x264 web-rip

Identity.Thief.2013.UNRATED.HDRip.XVID.AC3.HQ.Hive-CM8

Size 1.729 GB   11 seeders     Added 2013-05-22 07:57:35

Stream torrent
Starting‥ You need BitLord! Get it from BitLord.com
To download or stream you need BitLord. Visit them at BitLord.com
Identity.Thief.2013.UNRATED.HDRip.XVID.AC3.HQ.Hive-CM8
Source: 1080p WEB-DL - thx
Video.: 720x304 @bitrate 1500 2pass
Audio.: English AC3 5.1 @384
Subs..: Yes, English in srt/subs
Sample: Yes, included
IMDb..: http://www.imdb.com/title/tt2024432/
ENCODE
brightness, contrast, rgb adjusted as needed
added sharpness and denoise
got very nice
enjoy
General
Complete name : Identity.Thief.2013.UNRATED.HDRip.XVID.AC3.HQ.Hive-CM8.avi
Format : AVI
Format/Info : Audio Video Interleave
File size : 1.59 GiB
Duration : 2h 0mn
Overall bit rate : 1 893 Kbps
Writing application : Nandub v1.0rc2
Writing library : Nandub build 1853/release
Video
ID : 0
Format : MPEG-4 Visual
Format profile : Advanced Simple@L5
Format settings, BVOP : 2
Format settings, QPel : Yes
Format settings, GMC : No warppoints
Format settings, Matrix : Default (H.263)
Muxing mode : Packed bitstream
Codec ID : XVID
Codec ID/Hint : XviD
Duration : 2h 0mn
Bit rate : 1 500 Kbps
Width : 720 pixels
Height : 304 pixels
Display aspect ratio : 2.35:1
Frame rate : 23.976 fps
Color space : YUV
Chroma subsampling : 4:2:0
Bit depth : 8 bits
Scan type : Progressive
Compression mode : Lossy
Bits/(Pixel*Frame) : 0.286
Stream size : 1.26 GiB (79%)
Writing library : XviD 1.2.1 (UTC 2008-12-04)
Audio
ID : 1
Format : AC-3
Format/Info : Audio Coding 3
Mode extension : CM (complete main)
Format settings, Endianness : Big
Codec ID : 2000
Duration : 2h 0mn
Bit rate mode : Constant
Bit rate : 384 Kbps
Channel(s) : 6 channels
Channel positions : Front: L C R, Side: L R, LFE
Sampling rate : 48.0 KHz
Bit depth : 16 bits
Compression mode : Lossy
Stream size : 331 MiB (20%)
Alignment : Split accross interleaves
Interleave, duration : 42 ms (1.00 video frame)
Interleave, preload duration : 500 ms
PLOT
Mild-mannered businessman Sandy Patterson travels from Denver to Miami
to confront the deceptively harmless-looking woman who has been living
it up after stealing Sandy's identity.
CAST
Jason Bateman ... Sandy Patterson
Melissa McCarthy ... Diana
Amanda Peet ... Trish Patterson
Jon Favreau ... Harold Cornish
Identity.Thief.2013.UNRATED.HDRip.XVID.AC3.HQ.Hive-CM8/sample.avi 18.067 MB
Identity.Thief.2013.UNRATED.HDRip.XVID.AC3.HQ.Hive-CM8/Identity.Thief.2013.UNRATED.HDRip.XVID.AC3.HQ.Hive-CM8.nfo 4.347 KB
Identity.Thief.2013.UNRATED.HDRip.XVID.AC3.HQ.Hive-CM8/Identity.Thief.2013.UNRATED.HDRip.XVID.AC3.HQ.Hive-CM8.avi 1.711 GB
Gathering some info...

Register and log in Isohunt and see no captcha anymore!

4000 symbols left
Hash 86e09f6f40e8ca5fac355f94399806d5c03ea4ca

Related torrents for "Identity.Thief.2013.UNRATED.HDRip.XVID.AC3.HQ.Hive-CM8"

Torrent search:

hd 2013