Sr.Avila.S01E00.Los.Secretos.detras.de.la.Serie.1280x1080i.h264.HDTV.THoRCuATo.mkv

Size 1.03 GB   0 seeders     Added 2013-05-22 08:46:35

Stream torrent
Starting‥ You need BitLord! Get it from BitLord.com
To download or stream you need BitLord. Visit them at BitLord.com
General
Complete name                    : E:Sr.Avila.S01E00.Los.Secretos.detras.de.la.Serie.1280x1080i.h264.HDTV.THoRCuATo.mkv
Format                           : Matroska
File size                        : 982 MiB
Duration                         : 24mn 26s
Overall bit rate                 : 5 617 Kbps
Encoded date                     : UTC 2013-05-08 18:32:18
Writing application              : mkvmerge v6.1.0 ('Old Devil') built on Mar  2 2013 14:32:37
Writing library                  : libebml v1.3.0 + libmatroska v1.4.0

Video
ID                               : 1
Format                           : AVC
Format/Info                      : Advanced Video Codec
Format profile                   : Main@L4.0
Format settings, CABAC           : No
Format settings, ReFrames        : 4 frames
Muxing mode                      : Container profile=Unknown@4.0
Codec ID                         : V_MPEG4/ISO/AVC
Duration                         : 24mn 26s
Bit rate                         : 4 866 Kbps
Width                            : 1 920 pixels
Original width                   : 1 280 pixels
Height                           : 1 080 pixels
Display aspect ratio             : 16:9
Frame rate                       : 59.940 fps
Original frame rate              : 29.970 fps
Color space                      : YUV
Chroma subsampling               : 4:2:0
Bit depth                        : 8 bits
Scan type                        : MBAFF
Bits/(Pixel*Frame)               : 0.039
Stream size                      : 851 MiB (87%)

Audio #1
ID                               : 2
Format                           : AC-3
Format/Info                      : Audio Coding 3
Mode extension                   : CM (complete main)
Codec ID                         : A_AC3
Duration                         : 24mn 26s
Bit rate mode                    : Constant
Bit rate                         : 448 Kbps
Channel(s)                       : 2 channels
Channel positions                : Front: L R
Sampling rate                    : 48.0 KHz
Bit depth                        : 16 bits
Video delay                      : -517ms
Stream size                      : 78.3 MiB (8%)

Audio #2
ID                               : 3
Format                           : AC-3
Format/Info                      : Audio Coding 3
Mode extension                   : CM (complete main)
Codec ID                         : A_AC3
Duration                         : 24mn 26s
Bit rate mode                    : Constant
Bit rate                         : 192 Kbps
Channel(s)                       : 2 channels
Channel positions                : Front: L R
Sampling rate                    : 48.0 KHz
Bit depth                        : 16 bits
Video delay                      : -536ms
Stream size                      : 33.6 MiB (3%)
Language                         : Spanish

----------------------------------------------------------------------------

SOURCE: HDTV

NOTA: EL TAMAÑO DE IMAGEN ES 1280x1080 DESPLEGADO CON RELACION DE ASPECTO 16:9 (ASI VIENE LA SEÑAL HDTV).
		
Sr.Avila.S01E00.Los.Secretos.detras.de.la.Serie.1280x1080i.h264.HDTV.THoRCuATo.mkv 1.03 GB
Gathering some info...

Register and log in Isohunt and see no captcha anymore!

4000 symbols left
Hash 41f8ae71cf4fb68f37070ba4f7ab74f7c43e01ec

Related torrents for "Sr.Avila.S01E00.Los.Secretos.detras.de.la.Serie.1280x1080i.h264.HDTV.THoRCuATo.mkv"

Torrent search:

season 01 h264 hdtv episode 00