imdb
rating

7.8
Star Trek Into Darkness

Star Trek Into Darkness (2013)

Action, Adventure, Science Fiction

Full description

Star Trek Into Darkness 2013 CAM NEW AUDiO XViD - JUSTiCE Verified

Size 1.539 GB   18 seeders     Added 2013-05-22 08:52:34

Stream torrent
Starting‥ You need BitLord! Get it from BitLord.com
To download or stream you need BitLord. Visit them at BitLord.com
							
Star Trek Into Darkness 2013 CAM NEW AUDiO XViD-JUSTiCE
SOURCE : YouTube 2mins 30 secs and PSO AUDIO : A Good Friend. 
Video and audio both cleaned and given justice. 
Check sample and see..... 
Ok first off took the youtube first 10mins clip and cut what was needed,so no repeated 
scenes on this one. 
From there i had to clean the PSO release up ...opted to resize it aswell,but the AR does dift 
from the work PSO did. 
Will pre warn those that don't already know....this video does have a scrolling pluse/flicker that 
comes and goes and also has several blur marks throughout the video ...mostly in the bottom left 
and right corners. 
Flicker does look worse on a pc/lappy ....i've viewed this on my small 23" tv before releasing this and 
for a cam its not too bad both video and audio. 
Audio as been syncd and pretty sure is dam close throughout ...might slip a little where the video was cut 
by pso also there was a few little glitches in the video that also through the sync out but fixed most if not 
all of them. 
Anyway ....there is line but heard its waiting for a better video,so until then.... 
Video 
ID : 0 
Format : MPEG-4 Visual 
Format profile : Advanced Simple@L5 
Format settings, BVOP : 2 
Format settings, QPel : No 
Format settings, GMC : No warppoints 
Format settings, Matrix : Default (MPEG) 
Muxing mode : Packed bitstream 
Codec ID : XVID 
Codec ID/Hint : XviD 
Duration : 2h 2mn 
Bit rate : 1 515 Kbps 
Width : 720 pixels 
Height : 288 pixels 
Display aspect ratio : 2.500 
Frame rate : 25.000 fps 
Color space : YUV 
Chroma subsampling : 4:2:0 
Bit depth : 8 bits 
Scan type : Progressive 
Compression mode : Lossy 
Bits/(Pixel*Frame) : 0.292 
Stream size : 1.30 GiB (92%) 
Writing library : XviD 64 
Audio 
ID : 1 
Format : MPEG Audio 
Format version : Version 1 
Format profile : Layer 3 
Mode : Joint stereo 
Mode extension : MS Stereo 
Codec ID : 55 
Codec ID/Hint : MP3 
Duration : 2h 2mn 
Bit rate mode : Constant 
Bit rate : 128 Kbps 
Channel(s) : 2 channels 
Sampling rate : 44.1 KHz 
Compression mode : Lossy 
Stream size : 112 MiB (8%) 
Alignment : Split accross interleaves 
Interleave, duration : 40 ms (1.00 video frame) 
Interleave, preload duration : 500 ms 
Star Trek Into Darkness 2013 CAM NEW AUDiO XViD - JUSTiCE/sample 2.avi 13.527 MB
Star Trek Into Darkness 2013 CAM NEW AUDiO XViD - JUSTiCE/sample 1.avi 8.489 MB
Star Trek Into Darkness 2013 CAM NEW AUDiO XViD - JUSTiCE/Star Trek Into Darkness 2013 CAM NEW AUDiO XViD - JUSTiCE.nfo 3.363 KB
Gathering some info...

Register and log in Isohunt and see no captcha anymore!

4000 symbols left
Hash b316eb13601c45a080775052402925b3603c4a67

Related torrents for "Star Trek Into Darkness 2013 CAM NEW AUDiO XViD - JUSTiCE"

Torrent search:

cam 2013