Black.Rock.WEBrip.Xvid-Ac3-MiLLENiUM

Size 1.291 GB   0 seeders     Added 2013-05-22 11:54:34

Stream torrent
Starting‥ You need BitLord! Get it from BitLord.com
To download or stream you need BitLord. Visit them at BitLord.com
Black.Rock.WEBrip.Xvid-Ac3-MiLLENiUM
http://www.imdb.com/title/tt1930294/General
Complete name                            : Black.Rock.WEBrip.Xvid-Ac3-MiLLENiUM.avi
Source                                   : PHD [Thanks]
Format                                   : AVI
Format/Info                              : Audio Video Interleave
File size                                : 1.17 GiB
Duration                                 : 1h 19mn
Overall bit rate                         : 2 089 Kbps
Writing application                      : VirtualDubMod 1.5.10.2 (build 2540/release)
Writing library                          : VirtualDubMod build 2540/releaseVideo
ID                                       : 0
Format                                   : MPEG-4 Visual
Format profile                           : Advanced Simple@L5
Format settings, BVOP                    : 2
Format settings, QPel                    : No
Format settings, GMC                     : No warppoints
Format settings, Matrix                  : Default (H.263)
Muxing mode                              : Packed bitstream
Codec ID                                 : XVID
Codec ID/Hint                            : XviD
Duration                                 : 1h 19mn
Bit rate                                 : 1 695 Kbps
Width                                    : 720 pixels
Height                                   : 384 pixels
Display aspect ratio                     : 1.875
Frame rate                               : 23.976 fps
Color space                              : YUV
Chroma subsampling                       : 4:2:0
Bit depth                                : 8 bits
Scan type                                : Progressive
Compression mode                         : Lossy
Bits/(Pixel*Frame)                       : 0.256
Stream size                              : 969 MiB (81%)
Writing library                          : XviD 1.2.1 (UTC 2008-12-04)Audio
ID                                       : 1
Format                                   : AC-3
Format/Info                              : Audio Coding 3
Mode extension                           : CM (complete main)
Codec ID                                 : 2000
Duration                                 : 1h 19mn
Bit rate mode                            : Constant
Bit rate                                 : 384 Kbps
Channel(s)                               : 6 channels
Channel positions                        : Front: L C R, Side: L R, LFE
Sampling rate                            : 48.0 KHz
Bit depth                                : 16 bits
Compression mode                         : Lossy
Stream size                              : 219 MiB (18%)
Alignment                                : Split accross interleaves
Interleave, duration                     : 42 ms (1.00 video frame)
Interleave, preload duration             : 500 msScreensGREETZ TO ALL
RESPECT TO MY CREW FOR ALWAYS STICKING TOGETHER
Black.Rock.WEBrip.Xvid-Ac3-MiLLENiUM/Black.Rock.WEBrip.Xvid-Ac3-MiLLENiUM.avi 1.252 GB
Black.Rock.WEBrip.Xvid-Ac3-MiLLENiUM/Sample.avi 39.389 MB
Black.Rock.WEBrip.Xvid-Ac3-MiLLENiUM/Black.Rock.WEBrip.Xvid-Ac3-MiLLENiUM.avi_thumbs_[2013.05.21_11.29.11].jpg 164.241 KB
Gathering some info...

Register and log in Isohunt and see no captcha anymore!

4000 symbols left
Hash eb6c2fff54b0e7bfeff87f57cfd891c3e875b47d