Balmorhea - Stranger (2012) [EAC FLAC,CUE][A.C.U.M.] Verified

Size 309.605 MB   1 seeders     Added 2013-05-22 18:58:43

Stream torrent
Starting‥ You need BitLord! Get it from BitLord.com
To download or stream you need BitLord. Visit them at BitLord.com
							Balmorhea - Stranger (2012) [EAC FLAC,CUE][A.C.U.M.]
Balmorhea è un gruppo rock minimalista originario di Austin (Texas, Stati Uniti), fondato nel 2006 da Rob Lowe e Michael Muller.
La band ha prodotto 5 album full-length, l'ultimo dei quali Stranger è stato pubblicato negli Stati Uniti nell'ottobre 2012.
Le loro influenze maggiori provengono da Ludovico Einaudi, The Six Parts Seven, Claude Debussy, Ludwig van Beethoven, Rachel's, Gillian Welch, Max Richter, Arvo Pärt e John Cage.
Fonte: wikipedia
Scheda tecnica :
Gruppo : Balmorhea
Album : Stranger
Anno : 2012
Genere : minimalista - post rock
Paese : USA
Band :
Rob Lowe - chitarra, pianoforte, melodica, banjo
Michael Muller - chitarra, banjo, pianoforte
Aisha Burns - violino
Dylan Rieck - violoncello
Travis Chapman - contrabbasso
Kendall Clark - percussioni
Songs :
01 - Days
02 - Masollan
03 - Fake Fealty
04 - Dived
05 - Jubi
06 - Artifact
07 - Shore
08 - Pyrakantha
09 - Islet
10 - Pilgrim
EAC Log :
Exact Audio Copy V1.0 beta 3 from 29. August 2011

EAC extraction logfile from 11. September 2012, 0:39

Balmorhea / Stranger

Used drive : ATAPI iHBS112 2 Adapter: 1 ID: 0

Read mode : Secure
Utilize accurate stream : Yes
Defeat audio cache : Yes
Make use of C2 pointers : No

Read offset correction : 6
Overread into Lead-In and Lead-Out : No
Fill up missing offset samples with silence : Yes
Delete leading and trailing silent blocks : No
Null samples used in CRC calculations : Yes
Used interface : Native Win32 interface for Win NT & 2000
Gap handling : Appended to previous track

Used output format : User Defined Encoder
Selected bitrate : 1024 kBit/s
Quality : High
Add ID3 tag : No
Command line compressor : D:\Program Files\Exact Audio Copy\FLAC\FLAC.EXE
Additional command line options : -8 -V -T "ARTIST=%artist%" -T "TITLE=%title%" -T "ALBUM=%albumtitle%" -T "DATE=%year%" -T "TRACKNUMBER=%tracknr%" -T "GENRE=%genre%" -T "ALBUM ARTIST=%albumartist%" -T "TOTALTRACKS=%numtracks%" %source% -o %dest%


TOC of the extracted CD

 Track | Start | Length | Start sector | End sector 
 ---------------------------------------------------------
 1 | 0:00.00 | 8:47.07 | 0 | 39531 
 2 | 8:47.07 | 5:14.13 | 39532 | 63094 
 3 | 14:01.20 | 4:31.60 | 63095 | 83479 
 4 | 18:33.05 | 3:35.25 | 83480 | 99629 
 5 | 22:08.30 | 4:58.19 | 99630 | 121998 
 6 | 27:06.49 | 7:09.20 | 121999 | 154193 
 7 | 34:15.69 | 5:28.44 | 154194 | 178837 
 8 | 39:44.38 | 6:23.20 | 178838 | 207582 
 9 | 46:07.58 | 1:08.06 | 207583 | 212688 
 10 | 47:15.64 | 6:48.60 | 212689 | 243348 


Track 1

 Filename F:\EACrips\2012 - Stranger\01 - Days.wav

 Pre-gap length 0:00:02.00

 Peak level 98.9 %
 Extraction speed 4.9 X
 Track quality 100.0 %
 Test CRC C1B08FC7
 Copy CRC C1B08FC7
 Track not present in AccurateRip database
 Copy OK

Track 2

 Filename F:\EACrips\2012 - Stranger\02 - Masollan.wav

 Peak level 98.9 %
 Extraction speed 5.5 X
 Track quality 100.0 %
 Test CRC 14038290
 Copy CRC 14038290
 Track not present in AccurateRip database
 Copy OK

Track 3

 Filename F:\EACrips\2012 - Stranger\03 - Fake Fealty.wav

 Pre-gap length 0:00:00.33

 Peak level 98.9 %
 Extraction speed 6.0 X
 Track quality 100.0 %
 Test CRC 230A6804
 Copy CRC 230A6804
 Track not present in AccurateRip database
 Copy OK

Track 4

 Filename F:\EACrips\2012 - Stranger\04 - Dived.wav

 Pre-gap length 0:00:01.54

 Peak level 98.9 %
 Extraction speed 6.1 X
 Track quality 100.0 %
 Test CRC 35D302BC
 Copy CRC 35D302BC
 Track not present in AccurateRip database
 Copy OK

Track 5

 Filename F:\EACrips\2012 - Stranger\05 - Jubi.wav

 Pre-gap length 0:00:08.24

 Peak level 99.9 %
 Extraction speed 6.8 X
 Track quality 100.0 %
 Test CRC A8161EF1
 Copy CRC A8161EF1
 Track not present in AccurateRip database
 Copy OK

Track 6

 Filename F:\EACrips\2012 - Stranger\06 - Artifact.wav

 Pre-gap length 0:00:05.16

 Peak level 98.9 %
 Extraction speed 6.7 X
 Track quality 99.9 %
 Test CRC DDD2CE98
 Copy CRC DDD2CE98
 Track not present in AccurateRip database
 Copy OK

Track 7

 Filename F:\EACrips\2012 - Stranger\07 - Shore.wav

 Pre-gap length 0:00:07.52

 Peak level 99.9 %
 Extraction speed 7.8 X
 Track quality 100.0 %
 Test CRC 41829330
 Copy CRC 41829330
 Track not present in AccurateRip database
 Copy OK

Track 8

 Filename F:\EACrips\2012 - Stranger\08 - Pyrakantha.wav

 Pre-gap length 0:00:00.17

 Peak level 98.8 %
 Extraction speed 8.4 X
 Track quality 100.0 %
 Test CRC 200078C6
 Copy CRC 200078C6
 Track not present in AccurateRip database
 Copy OK

Track 9

 Filename F:\EACrips\2012 - Stranger\09 - Islet.wav

 Pre-gap length 0:00:04.57

 Peak level 84.7 %
 Extraction speed 5.9 X
 Track quality 100.0 %
 Test CRC AC8035F0
 Copy CRC AC8035F0
 Track not present in AccurateRip database
 Copy OK

Track 10

 Filename F:\EACrips\2012 - Stranger\10 - Pilgrim.wav

 Peak level 98.9 %
 Extraction speed 8.9 X
 Track quality 100.0 %
 Test CRC 1C3A7170
 Copy CRC 1C3A7170
 Track not present in AccurateRip database
 Copy OK


None of the tracks are present in the AccurateRip database

No errors occurred

End of status report

==== Log checksum 72770F1512745C17C10796CECE0738348F7DB1B4FD5EB76355EF0CA58D650FC9 ====
Balmorhea - Stranger (2012) [EAC FLAC,CUE][A.C.U.M.]/Scan/CD.jpg 5.366 MB
Balmorhea - Stranger (2012) [EAC FLAC,CUE][A.C.U.M.]/Scan/Cover - Back.jpg 3.519 MB
Balmorhea - Stranger (2012) [EAC FLAC,CUE][A.C.U.M.]/Scan/Inside.jpg 2.054 MB
Gathering some info...

Register and log in Isohunt and see no captcha anymore!

4000 symbols left
Hash 05c6311e1fd92243b3f953ed6fa22bfaeb855423

Related torrents for "Balmorhea - Stranger (2012) [EAC FLAC,CUE][A.C.U.M.]"

Torrent search:

lossless lossless 2012