imdb
rating

6.8
Friends

Friends (1971)

Drama, Romance

Full description
quality   dvdr hdtv x264 hd bd fullhd dvdrip

Blake Shelton Ft. Pistol Annies & Friends - Boys 'Round Here [Music Video] 720p [Sbyky].mp4

Size 85.054 MB   0 seeders     Added 2013-05-23 01:40:53

Stream torrent
Starting‥ You need BitLord! Get it from BitLord.com
To download or stream you need BitLord. Visit them at BitLord.com
							
General
Complete name : Blake Shelton Ft. Pistol Annies & Friends - Boys 'Round Here [Music Video] 720p [Sbyky].mp4
Format : MPEG-4
Format profile : Base Media / Version 2
Codec ID : mp42
File size : 81.1 MiB
Duration : 3mn 52s
Overall bit rate mode : Variable
Overall bit rate : 2 932 Kbps
Encoded date : UTC 2013-05-01 17:13:57
Tagged date : UTC 2013-05-01 17:13:57
Video
ID : 1
Format : AVC
Format/Info : Advanced Video Codec
Format profile : High@L3.1
Format settings, CABAC : Yes
Format settings, ReFrames : 1 frame
Codec ID : avc1
Codec ID/Info : Advanced Video Coding
Duration : 3mn 52s
Bit rate : 2 737 Kbps
Maximum bit rate : 6 213 Kbps
Width : 1 280 pixels
Height : 720 pixels
Display aspect ratio : 16:9
Frame rate mode : Constant
Frame rate : 29.970 fps
Color space : YUV
Chroma subsampling : 4:2:0
Bit depth : 8 bits
Scan type : Progressive
Bits/(Pixel*Frame) : 0.099
Stream size : 75.7 MiB (93%)
Tagged date : UTC 2013-05-01 17:14:05
Audio
ID : 2
Format : AAC
Format/Info : Advanced Audio Codec
Format profile : LC
Codec ID : 40
Duration : 3mn 52s
Bit rate mode : Variable
Bit rate : 192 Kbps
Maximum bit rate : 204 Kbps
Channel(s) : 2 channels
Channel positions : Front: L R
Sampling rate : 44.1 KHz
Compression mode : Lossy
Stream size : 5.31 MiB (7%)
Title : IsoMedia File Produced by Google, 5-11-2011
Encoded date : UTC 2013-05-01 17:14:02
Tagged date : UTC 2013-05-01 17:14:05
Shared By Sbyky
Blake Shelton Ft. Pistol Annies & Friends - Boys 'Round Here [Music Video] 720p [Sbyky].mp4 85.054 MB
Gathering some info...

Register and log in Isohunt and see no captcha anymore!

4000 symbols left
Hash 1a62dc122deccf699c8450e08188ea1098463416

Related torrents for "Blake Shelton Ft. Pistol Annies & Friends - Boys 'Round Here [Music Video] 720p [Sbyky].mp4"

Torrent search:

hd