Cidade de Deus 2002 1080p x264 - alrmothe

Size 8.579 GB   0 seeders     Added 2013-05-23 02:51:26

Stream torrent
Starting‥ You need BitLord! Get it from BitLord.com
To download or stream you need BitLord. Visit them at BitLord.com
.
Movies : Crime : BluRay : Portuguese
Cidade de Deus 2002 1080p x264 - alrmothe
IMDB:
http://www.imdb.com/title/tt0317248/
Genre:Crime | Drama
Source:Blu-ray Disc
Language:English
File size:7.21 GiB
Overall bit rate:8791 kbps
Duration:2h 9mn
Encoded / Released By:alrmothe
Storyline:Brazil, 1960's, City of God. The Tender Trio robs motels and gas trucks. Younger kids watch and learn well...too well. 1970's: Li'l Zé has prospered very well and owns the city. He causes violence and fear as he wipes out rival gangs without mercy. His best friend Bené is the only one to keep him on the good side of sanity. Rocket has watched these two gain power for years, and he wants no part of it. Yet he keeps getting swept up in the madness. All he wants to do is take pictures. 1980's: Things are out of control between the last two remaining gangs...will it ever end? Welcome to the City of God.
cast
Alexandre Rodrigues ... Buscapé - Rocket
Leandro Firmino ... Zé Pequeno - Li'l Zé
Phellipe Haagensen ... Bené - Benny
Douglas Silva ... Dadinho - Li'l Dice
Jonathan Haagensen ... Cabeleira - Shaggy
Video Information
Format Matroska
Format : AVC 
Format/Info : Advanced Video Codec 
Format profile : [email protected]
/*  */

Format settings, CABAC : Yes 
Format settings, ReFrames : 4 frames 
Codec ID : V_MPEG4/ISO/AVC 
Bit rate: 8150 Kbps 
Display aspect ratio 1:85:1 
Frame rate : 23.976 fps 
Color space : YUV 
Chroma subsampling : 4:2:0 
Bit depth : 8 bits 
Scan type : Progressive 
Bits/(Pixel*Frame) : 0.171 
Stream size: 7.21 GiB 
Resolution:1920x1036
Audio Information:
Format: AC3
Bit rate 640 Kbps
Channel(s) : 6 channels
Channel positions:Front: L C R, Side: L R, LFE
Sampling rate: 48.0 KHz
Bit depth: 16 bits
Compression mode: Lossy
Stream size:593 MiB
Language: Portuguese
sample :yes
SUB:Arabic ,Russian,English
Screenshots
Code:

http://fr33dom.h33t.com:3310/announce
http://121.14.98.151:9090/announce
http://tracker.torrentbay.to:6969/announce
http://exodus.desync.com:6969/announce
http://94.228.192.98/announce
http://tracker.coppersurfer.tk:6969/announce
udp://tracker.istole.it:80/announce
udp://fr33dom.h33t.com:3310/announce
Trailer
http://www.youtube.com/watch?v=ioUE_5wpg_E
Cidade de Deus 2002 1080p x264 - alrmothe/sub/Russian.srt 157.773 KB
Cidade de Deus 2002 1080p x264 - alrmothe/sub/Russian1.srt 114.457 KB
Cidade de Deus 2002 1080p x264 - alrmothe/sub/English.srt 107.237 KB
Gathering some info...

Register and log in Isohunt and see no captcha anymore!

4000 symbols left
Hash f30cfe5a6b39a247ddd9fbdf2ecbd5316a9b5ea4