imdb
rating

 
The Secret

The Secret (2016)

Drama

Full description

The Secret in Their Eyes 2009 720p BRRip x264 MP4 AAC-CC

Size 3.192 GB   7 seeders     Added 2013-05-23 05:51:50

Stream torrent
Starting‥ You need BitLord! Get it from 1BitLord.com
To download or stream you need BitLord. Visit them at BitLord.com
							AKA El secreto de sus ojoshttp://www.imdb.com/title/tt1305806/
Source: The Secret in Their Eyes 2009 720p BluRay-x264-NODLABS Thanks!
Subs: Arabic, Danish, Dutch, English, Farsi-Persian, Finnish, French, Swedish, Vietnamese.
Sample and Screens included.
General
Complete name : The Secret in Their Eyes 2009 720p BRRip x264 MP4 AAC-CC.mp4
Format : MPEG-4
Format profile : Base Media
Codec ID : isom
File size : 2.94 GiB
Duration : 2h 9mn
Overall bit rate mode : Variable
Overall bit rate : 3 254 Kbps
Encoded date : UTC 2013-05-07 15:22:39
Tagged date : UTC 2013-05-07 15:22:39
Writing application : Yamb 2.1.0.0 
Video
ID : 1
Format : AVC
Format/Info : Advanced Video Codec
Format profile : High@L4.1
Format settings, CABAC : Yes
Format settings, ReFrames : 5 frames
Codec ID : avc1
Codec ID/Info : Advanced Video Coding
Duration : 2h 9mn
Bit rate : 2 900 Kbps
Maximum bit rate : 69.8 Mbps
Width : 1 280 pixels
Height : 544 pixels
Display aspect ratio : 2.35:1
Frame rate mode : Variable
Frame rate : 24.000 fps
Minimum frame rate : 19.048 fps
Maximum frame rate : 24.390 fps
Color space : YUV
Chroma subsampling : 4:2:0
Bit depth : 8 bits
Scan type : Progressive
Bits/(Pixel*Frame) : 0.174
Stream size : 2.59 GiB (88%)
Writing library : x264 core 112
Encoding settings : cabac=1 / ref=5 / deblock=1:0:0 / analyse=0x3:0x113 / me=hex / subme=7 / psy=1 / psy_rd=1.00:0.00 / mixed_ref=1 / me_range=16 / chroma_me=1 / trellis=1 / 8x8dct=1 / cqm=0 / deadzone=21,11 / fast_pskip=1 / chroma_qp_offset=-2 / threads=3 / sliced_threads=0 / nr=0 / decimate=1 / interlaced=0 / constrained_intra=0 / bframes=5 / b_pyramid=2 / b_adapt=2 / b_bias=0 / direct=1 / weightb=1 / open_gop=0 / weightp=2 / keyint=240 / keyint_min=24 / scenecut=40 / intra_refresh=0 / rc_lookahead=50 / rc=abr / mbtree=1 / bitrate=2900 / ratetol=1.0 / qcomp=0.60 / qpmin=3 / qpmax=51 / qpstep=4 / ip_ratio=1.40 / aq=1:1.00
Encoded date : UTC 2013-05-06 21:02:15
Tagged date : UTC 2013-05-07 15:26:37
Color primaries : BT.709
Transfer characteristics : BT.709
Matrix coefficients : BT.709
Audio
ID : 2
Format : AAC
Format/Info : Advanced Audio Codec
Format profile : LC
Codec ID : 40
Duration : 2h 9mn
Bit rate mode : Variable
Bit rate : 384 Kbps
Maximum bit rate : 580 Kbps
Channel(s) : 6 channels
Channel positions : Front: L C R, Side: L R, LFE
Sampling rate : 48.0 KHz
Compression mode : Lossy
Delay relative to video : 83ms
Stream size : 355 MiB (12%)
Language : Spanish
Encoded date : UTC 2013-05-07 15:26:00
Tagged date : UTC 2013-05-07 15:26:37
Enjoy...
Requested by cmptrluvr's
Coming soon: Shadow of a Doubt, La Haine, Chungking Express and more.
						
The Secret in Their Eyes 2009 720p BRRip x264 MP4 AAC-CC/Sample/Sample.mp4 31.199 MB
The Secret in Their Eyes 2009 720p BRRip x264 MP4 AAC-CC/Screens-Info/The Secret in Their Eyes 2009 720p BRRip x264 MP4 AAC-CC.mp4_snapshot_01.27.02.png 1.202 MB
The Secret in Their Eyes 2009 720p BRRip x264 MP4 AAC-CC/Screens-Info/The Secret in Their Eyes 2009 720p BRRip x264 MP4 AAC-CC.mp4_snapshot_01.08.00.png 1.131 MB
Gathering some info...

Register and log in Isohunt and see no captcha anymore!

4000 symbols left
Hash 95410f9f093d70788037fba79b5da63f85b73152

Related torrents for "The Secret in Their Eyes 2009 720p BRRip x264 MP4 AAC-CC"

Torrent search:

2009 x264 hd bd