imdb
rating

 
Maroon

Maroon (2016)

Full description
quality   hd fullhd x264 hdtv

Maroon 5 - Love Somebody (1080p) - UmBreOn

Size 177.769 MB   4 seeders     Added 2013-05-23 11:20:55

Stream torrent
Starting‥ You need BitLord! Get it from BitLord.com
To download or stream you need BitLord. Visit them at BitLord.com
							General
Complete name : Maroon 5 - Love Somebody (1080p) - UmBreOn\Maroon 5 - Love Somebody (1080p) - UmBreOn.mp4
Format : MPEG-4
Format profile : Base Media / Version 2
Codec ID : mp42
File size : 169 MiB
Duration : 3mn 58s
Overall bit rate mode : Variable
Overall bit rate : 5 963 Kbps
Encoded date : UTC 2013-05-16 21:14:46
Tagged date : UTC 2013-05-16 21:14:46
gsst : 0
gstd : 238421
gssd : BB64FFB46HH1369274338384536
gshh : r3---sn-ci5gup-h55e.c.youtube.com
Video
ID : 1
Format : AVC
Format/Info : Advanced Video Codec
Format profile : High@L4.0
Format settings, CABAC : Yes
Format settings, ReFrames : 1 frame
Format settings, GOP : M=1, N=48
Codec ID : avc1
Codec ID/Info : Advanced Video Coding
Duration : 3mn 58s
Bit rate : 5 768 Kbps
Maximum bit rate : 13.3 Mbps
Width : 1 920 pixels
Height : 1 080 pixels
Display aspect ratio : 16:9
Frame rate mode : Constant
Frame rate : 23.976 fps
Color space : YUV
Chroma subsampling : 4:2:0
Bit depth : 8 bits
Scan type : Progressive
Bits/(Pixel*Frame) : 0.116
Stream size : 164 MiB (97%)
Tagged date : UTC 2013-05-16 21:14:56
Audio
ID : 2
Format : AAC
Format/Info : Advanced Audio Codec
Format profile : LC
Codec ID : 40
Duration : 3mn 58s
Bit rate mode : Variable
Bit rate : 192 Kbps
Maximum bit rate : 201 Kbps
Channel(s) : 2 channels
Channel positions : Front: L R
Sampling rate : 44.1 KHz
Compression mode : Lossy
Stream size : 5.45 MiB (3%)
Title : IsoMedia File Produced by Google, 5-11-2011
Encoded date : UTC 2013-05-16 21:14:54
Tagged date : UTC 2013-05-16 21:14:56
Maroon 5 - Love Somebody (1080p) - UmBreOn/Maroon 5 - Love Somebody (1080p) - UmBreOn.mp4 177.596 MB
Maroon 5 - Love Somebody (1080p) - UmBreOn/UmBreOn Release.jpg 172.81 KB
Maroon 5 - Love Somebody (1080p) - UmBreOn/seed.nfo 61 B
Gathering some info...

Register and log in Isohunt and see no captcha anymore!

4000 symbols left
Hash dfeaa985d8bbaf93f66c62264dc0340773af5fce

Related torrents for "Maroon 5 - Love Somebody (1080p) - UmBreOn"

Torrent search:

fullhd