imdb
rating

6.4
Oz: The Great and Powerful

Oz: The Great and Powerful (2013)

Adventure, Fantasy, Family

Full description

Oz.the.Great.and.Powerful.2013.480p.BRRip.XviD.AC3-PTpOWeR

Size 1.984 GB   24 seeders     Added 2013-05-23 17:32:34

Stream torrent
Starting‥ You need BitLord! Get it from 1BitLord.com
To download or stream you need BitLord. Visit them at BitLord.com
 
http://www.imdb.com/title/tt1623205/



A small-time magician arrives in an enchanted land and is forced to decide if he will be a good man or a great one. 



Director:
 Sam Raimi

Writers:
 Mitchell Kapner (screenplay), David Lindsay-Abaire (screenplay)

 James Franco, Michelle Williams, Rachel Weisz

Genres:
 Adventure | Family | Fantasy 

Country:
USA

Language:
English 




Format                                   : AVI
Format/Info                              : Audio Video Interleave
Format profile                           : OpenDML
Format settings                          : rec
File size                                : 1.85 GiB
Duration                                 : 2h 10mn
Overall bit rate                         : 2 027 Kbps
Writing application                      : AVI-Mux GUI 1.17.8, Aug 30 2008  12:36:58

Video
ID                                       : 0
Format                                   : MPEG-4 Visual
Format profile                           : Advanced Simple@L5
Format settings, BVOP                    : 2
Format settings, QPel                    : No
Format settings, GMC                     : No warppoints
Format settings, Matrix                  : Default (H.263)
Muxing mode                              : Packed bitstream
Codec ID                                 : XVID
Codec ID/Hint                            : XviD
Duration                                 : 2h 10mn
Bit rate                                 : 1 574 Kbps
Width                                    : 720 pixels
Height                                   : 304 pixels
Display aspect ratio                     : 2.35:1
Frame rate                               : 23.976 fps
Color space                              : YUV
Chroma subsampling                       : 4:2:0
Bit depth                                : 8 bits
Scan type                                : Progressive
Compression mode                         : Lossy
Bits/(Pixel*Frame)                       : 0.300
Stream size                              : 1.43 GiB (78%)
Writing library                          : XviD 63

Audio
ID                                       : 1
Format                                   : AC-3
Format/Info                              : Audio Coding 3
Mode extension                           : CM (complete main)
Format settings, Endianness              : Big
Codec ID                                 : 2000
Duration                                 : 2h 10mn
Bit rate mode                            : Constant
Bit rate                                 : 448 Kbps
Channel(s)                               : 6 channels
Channel positions                        : Front: L C R, Side: L R, LFE
Sampling rate                            : 48.0 KHz
Bit depth                                : 16 bits
Compression mode                         : Lossy
Stream size                              : 418 MiB (22%)
Alignment                                : Aligned on interleaves
Interleave, duration                     : 64 ms (1.53 video frames)
Interleave, preload duration             : 192 ms
Title                                    : oz.the.great.and.powerful.2013.720p.bluray.x264-sparks




screens



    	image
    	image
    	image
    	image
    	image
    	image


		
Oz.the.Great.and.Powerful.2013.480p.BRRip.XviD.AC3-PTpOWeR/Oz.the.Great.and.Powerful.2013.480p.BRRip.XviD.AC3-PTpOWeR.avi 1.984 GB
Oz.the.Great.and.Powerful.2013.480p.BRRip.XviD.AC3-PTpOWeR/Oz.the.Great.and.Powerful.2013.480p.BRRip.XviD.AC3-PTpOWeR.nfo 8.368 KB
Oz.the.Great.and.Powerful.2013.480p.BRRip.XviD.AC3-PTpOWeR/Torrent Downloaded From ExtraTorrent.com.txt 353 B
Gathering some info...

Register and log in Isohunt and see no captcha anymore!

4000 symbols left
Hash 7681f99859959a5e4c1c64543ad2218f7f470180

Related torrents for "Oz.the.Great.and.Powerful.2013.480p.BRRip.XviD.AC3-PTpOWeR"

Torrent search:

bd 2013