Kuchenne Rewolucje

Kuchenne Rewolucje (2014)

Full description

Kuchenne.Rewolucje.S07E13.PL.WEB-DL.XviD-CAMBiO(1).avi

Size 367.305 MB   0 seeders     Added 2013-05-24 04:39:38

Stream torrent
Starting‥ You need BitLord! Get it from BitLord.com
To download or stream you need BitLord. Visit them at BitLord.com
							Viki Lektiko, Elbląg
Jakub gastronomią zajmuje się od kilkunastu lat. Pracował jako kelner, kucharz, a nawet menadżer restauracji. A gdy trzy lata temu nadarzyła się okazja, w końcu otworzył coś swojego. Wynajął lokal po greckiej restauracji na elbląskiej starówce, który nazwał Viki Lektiko. Pozostawił wystrój grecki, jednak z karty wyrzucił prawie wszystkie wcześniejsze dania, bo ich nie znał. Interes zaczął się kręcić.
Niestety, na krótko. Idealna lokalizacja i nowe potrawy nie przyciągnęły zbyt wielu gości. Coraz częściej natomiast pojawiały się skargi na obsługę i niesmaczne potrawy. I tak to trwa do dziś, a Jakub nie wie, jak zmobilizować swoich pracowników do odmiany sytuacji. Dlatego o pomoc poprosił Magdę Gessler. Tym razem znana restauratorka przeprowadzi generalne porządki w kuchni, w karcie, a także... wśród ludzi!
--------------------------------------------------------------
General
Format: AVI
Format/Info: Audio Video Interleave
File size: 350 MiB
Duration: 41mn 2s
Overall bit rate: 1 193 Kbps
Video
ID: 0
Format: MPEG-4 Visual
Format profile: Advanced Simple@L5
Codec ID: XVID
Duration: 41mn 2s
Bit rate: 1 055 Kbps
Width: 640 pixels
Height: 352 pixels
Display aspect ratio: 16:9
Frame rate: 25.000 fps
Scan type: Progressive
Compression mode: Lossy
Stream size: 310 MiB (88%)
Writing library: XviD 64
Audio
ID: 1
Format: MPEG Audio
Codec ID: MP3
Duration: 41mn 2s
Bit rate: 128 Kbps
Channel(s): 2 channels
Sampling rate: 48.0 KHz
Compression mode: Lossy
Stream size: 37.6 MiB (11%)
Writing library: LAME 3.98.4
--------------------------------------------------------------
Screenshots:
Kuchenne.Rewolucje.S07E13.PL.WEB-DL.XviD-CAMBiO(1).avi 367.305 MB
Gathering some info...

Register and log in Isohunt and see no captcha anymore!

4000 symbols left
Hash 1686b47832e0d64c03cfb91f2b95f8fe0481e932

Related torrents for "Kuchenne.Rewolucje.S07E13.PL.WEB-DL.XviD-CAMBiO(1).avi"

Torrent search:

season 07 episode 13 web-dl