imdb
rating

3.7
The Devil's in the Details

The Devil's in the Details (2013)

Thriller

Full description
quality   x264 hd bd fullhd

The.Devils.in.the.Details.2013.BRrip.Xvid-Ac3-MiLLENiUM

Size 1.878 GB   0 seeders     Added 2013-05-24 05:40:51

Stream torrent
Starting‥ You need BitLord! Get it from BitLord.com
To download or stream you need BitLord. Visit them at BitLord.com
							The.Devils.in.the.Details.2013.BRrip.Xvid-Ac3-MiLLENiUMhttp://www.imdb.com/title/tt2137359/
General
Complete name : The.Devils.in.the.Details.2013.BRrip.Xvid-Ac3-MiLLENiUM.avi
Source : Blur Ray UnCo [Thanks]
Format : AVI
Format/Info : Audio Video Interleave
File size : 1.70 GiB
Duration : 1h 40mn
Overall bit rate : 2 421 Kbps
Writing application : VirtualDubMod 1.5.10.2 (build 2540/release)
Writing library : VirtualDubMod build 2540/release
Video
ID : 0
Format : MPEG-4 Visual
Format profile : Advanced Simple@L5
Format settings, BVOP : 2
Format settings, QPel : No
Format settings, GMC : No warppoints
Format settings, Matrix : Default (H.263)
Muxing mode : Packed bitstream
Codec ID : XVID
Codec ID/Hint : XviD
Duration : 1h 40mn
Bit rate : 1 771 Kbps
Width : 720 pixels
Height : 304 pixels
Display aspect ratio : 2.35:1
Frame rate : 23.976 fps
Color space : YUV
Chroma subsampling : 4:2:0
Bit depth : 8 bits
Scan type : Progressive
Compression mode : Lossy
Bits/(Pixel*Frame) : 0.338
Stream size : 1.24 GiB (73%)
Writing library : XviD 1.2.1 (UTC 2008-12-04)
Audio
ID : 1
Format : AC-3
Format/Info : Audio Coding 3
Mode extension : CM (complete main)
Codec ID : 2000
Duration : 1h 40mn
Bit rate mode : Constant
Bit rate : 640 Kbps
Channel(s) : 6 channels
Channel positions : Front: L C R, Side: L R, LFE
Sampling rate : 48.0 KHz
Bit depth : 16 bits
Compression mode : Lossy
Stream size : 459 MiB (26%)
Alignment : Split accross interleaves
Interleave, duration : 42 ms (1.00 video frame)
Interleave, preload duration : 500 ms
Screens
GREETZ TO ALL
RESPECT TO MY CREW FOR ALWAYS STICKING TOGETHER
						
The.Devils.in.the.Details.2013.BRrip.Xvid-Ac3-MiLLENiUM/The.Devils.in.the.Details.2013.BRrip.Xvid-Ac3-MiLLENiUM.avi 1.821 GB
The.Devils.in.the.Details.2013.BRrip.Xvid-Ac3-MiLLENiUM/Sample.avi 56.695 MB
The.Devils.in.the.Details.2013.BRrip.Xvid-Ac3-MiLLENiUM/The.Devils.in.the.Details.2013.BRrip.Xvid-Ac3-MiLLENiUM.avi_thumbs_[2013.05.23_16.46.22].jpg 119.563 KB
Gathering some info...

Register and log in Isohunt and see no captcha anymore!

4000 symbols left
Hash c610309b799e03dc73fa85a2119f159647065348

Related torrents for "The.Devils.in.the.Details.2013.BRrip.Xvid-Ac3-MiLLENiUM"

Torrent search:

bd 2013