imdb
rating

6.4
This Means War

This Means War (2012)

Action, Comedy, Romance

Full description

This Means War (2012) DVDRip XviD AC3 peaSoup

Size 1.137 GB   0 seeders     Added 2013-05-24 05:51:52

Stream torrent
Starting‥ You need BitLord! Get it from BitLord.com
To download or stream you need BitLord. Visit them at BitLord.com
List:
http://www.imdb.com/title/tt1596350/
List:
List:
Storyline
Two CIA agents, Tuck and Frank who are also best friends, have been benched because someone's after them. Tuck is divorced with a son whom he's not close to and Frank is a ladies man. Tuck decides to try and find someone so he places his profile on a dating website. Lauren, a woman also looking for a guy sees tuck's profile and goes with him. She later bumps into Frank and he hits on her and she goes out with him. she's intrigued by both of them. When they learn that they're dating the same girl, they agree to let her choose. But both can't help but use their skills to keep tabs on her and each other. And also sabotage each others dates with her.
List:

List:
Format : AVI
Format/Info : Audio Video Interleave
Format profile : OpenDML
File size : 1.01 GiB
Duration : 1h 33mn
Overall bit rate : 1 550 Kbps
Movie name : This Means War (2012) DVDRip XviD AC3 peaSoup
Writing application : Lavf53.21.0
Original source form/Name : THIS_MEANS_WAR
Video
ID : 0
Format : MPEG-4 Visual
Format profile : Advanced Simple@L5
Format settings, BVOP : 2
Format settings, QPel : No
Format settings, GMC : No warppoints
Format settings, Matrix : Default (H.263)
Muxing mode : Packed bitstream
Codec ID : XVID
Codec ID/Hint : XviD
Duration : 1h 33mn
Bit rate : 1 088 Kbps
Width : 720 pixels
Height : 302 pixels
Display aspect ratio : 2.40:1
Frame rate : 25.000 fps
Color space : YUV
Chroma subsampling : 4:2:0
Bit depth : 8 bits
Scan type : Progressive
Compression mode : Lossy
Bits/(Pixel*Frame) : 0.200
Stream size : 728 MiB (70%)
Writing library : XviD 1.2.1 (UTC 2008-12-04)
Audio
ID : 1
Format : AC-3
Format/Info : Audio Coding 3
Mode extension : CM (complete main)
Format settings, Endianness : Big
Codec ID : 2000
Duration : 1h 33mn
Bit rate mode : Constant
Bit rate : 448 Kbps
Channel(s) : 6 channels
Channel positions : Front: L C R, Side: L R, LFE
Sampling rate : 48.0 KHz
Bit depth : 16 bits
Compression mode : Lossy
Stream size : 300 MiB (29%)
Alignment : Aligned on interleaves
Interleave, duration : 32 ms (0.80 video frame)
This Means War (2012) DVDRip XviD AC3 peaSoup/This Means War (2012) DVDRip XviD AC3 peaSoup.avi 1.088 GB
This Means War (2012) DVDRip XviD AC3 peaSoup/This Means War (2012) DVDRip XviD AC3 peaSoup.idx 569.106 KB
This Means War (2012) DVDRip XviD AC3 peaSoup/This Means War (2012) DVDRip XviD AC3 peaSoup.sub 48.615 MB
Gathering some info...

Register and log in Isohunt and see no captcha anymore!

4000 symbols left
Hash 66430db9ba7b735dd5805c9be7c189842e79e97e

Related torrents for "This Means War (2012) DVDRip XviD AC3 peaSoup"

Torrent search:

dvdrip 2012