imdb
rating

6.8
Journey to the West: Conquering the Demons

Journey to the West: Conquering the Demons (2013)

Action, Adventure, Comedy, Fantasy

Full description

Journey to the West Conquering the Demons (2013)-alE13

Size 4.687 GB   0 seeders     Added 2013-05-24 06:58:36

Stream torrent
Starting‥ You need BitLord! Get it from BitLord.com
To download or stream you need BitLord. Visit them at BitLord.com
							
gatunek: Fantasy Komedia Przygodowy
produkcja: Chiny Hongkong
premiera: 2 lutego 2013 (świat)
reżyseria: Chi-kin Kwok Stephen Chow
opis:
 Demon hunter Chen Xuanzhang (Wen Zhang) believes that he can purify any demon through love.
However, his belief is shaken when his attempt to defeat a demon fish ends in a family's death and
a victory for violent demon hunter Duan (Shu Qi). After getting encouragement from his master, Xuanzhang
soldiers on to hunting down a demonic hog with the help of Duan, who has fallen in love with Xuanzhang.
Despite help from other demon hunters, the hog gets away. As a last resort, Xuanzhang and Duan turn to
the help of Sun Wukong (Huang Bo), who has been imprisoned for five centuries for his crimes in heaven.
Łowca Demonów Chen Xuanzhang (Wen Zhang) jest zdania, że może zmienić każdego demona przez miłość.
Jednak jego wiara w to zostanie złamana, gdy jego próba pokonania ryby demona kończy się śmiercią ludzi
A dopiero zwycięstwo gwałtownej Duan (Shu Qi) nad demonem ryby daje mu do myslenia. Po otrzymaniu zachęty 
od swego Mistrza, Xuanzhanga z grupą innych łowców rozpoczynają polowanie na Świńskiego Demona.
Od tego momentu zaczyna sie nie wirygodna"jazda"- masa śmiechu, akcji, i walk. 
obsada:
 Qi Shu 	... 	Miss Duan
Zhang Wen 	... 	Xuan Zang
Bo Huang 	... 	Sun Wukong 
dane techniczne:
Journey to the West Conquering the Demons (2013)-alE13.mkv
Format : Matroska
Format version : Version 4 / Version 2
File size : 4.33 GiB
Duration : 1h 49mn
Overall bit rate : 5 654 Kbps
Movie name : Journey to the West Conquering the Demons (2013)-alE13_AT-TEAM
Encoded date : UTC 2013-05-23 23:11:46
Writing application : mkvmerge v6.1.0 ('Old Devil') built on Mar 2 2013 14:32:37
Writing library : libebml v1.3.0 + libmatroska v1.4.0
Video
ID : 1
Format : AVC
Format/Info : Advanced Video Codec
Format profile : Main@L4.0
Format settings, CABAC : Yes
Format settings, ReFrames : 2 frames
Codec ID : V_MPEG4/ISO/AVC
Duration : 1h 49mn
Bit rate : 4 200 Kbps
Width : 1 920 pixels
Height : 1 080 pixels
Display aspect ratio : 16:9
Frame rate mode : Constant
Frame rate : 24.000 fps
Color space : YUV
Chroma subsampling : 4:2:0
Bit depth : 8 bits
Scan type : Progressive
Bits/(Pixel*Frame) : 0.084
Stream size : 3.09 GiB (71%)
Title : Journey to the West Conquering the Demons (2013)-alE13
Writing library : x264 core 112 r1834 a51816a
Audio
ID : 2
Format : DTS
Format/Info : Digital Theater Systems
Mode : 16
Format settings, Endianness : Big
Codec ID : A_DTS
Duration : 1h 49mn
Bit rate mode : Constant
Bit rate : 1 509 Kbps
Channel(s) : 6 channels
Channel positions : Front: L C R, Side: L R, LFE
Sampling rate : 48.0 KHz
Bit depth : 24 bits
Compression mode : Lossy
Stream size : 1.16 GiB (27%)
Title : 粤语 - alE13_dts 5.1_1536kbps
Language : Chinese
Text #1
ID : 3
Format : UTF-8
Codec ID : S_TEXT/UTF8
Codec ID/Info : UTF-8 Plain Text
Title : Journey to the West Conquering the Demons (2013)-alE13
Language : Polish
Text #2
ID : 4
Format : UTF-8
Codec ID : S_TEXT/UTF8
Codec ID/Info : UTF-8 Plain Text
Title : Journey to the West Conquering the Demons (2013)-alE13
Language : English
						
Journey to the West Conquering the Demons (2013)-alE13/sub/Journey to the West Conquering the Demons (2013)_eng.srt 75.385 KB
Journey to the West Conquering the Demons (2013)-alE13/sub/Journey to the West Conquering the Demons (2013)-alE13.srt 74.6 KB
Journey to the West Conquering the Demons (2013)-alE13/Journey to the West Conquering the Demons (2013)-alE13.mkv 4.653 GB
Gathering some info...

Register and log in Isohunt and see no captcha anymore!

4000 symbols left
Hash c5e26937cf206de685d31b02ecdd4ef7ce4e0f23

Related torrents for "Journey to the West Conquering the Demons (2013)-alE13"

Torrent search:

2013