imdb
rating

6.4
Oz: The Great and Powerful

Oz: The Great and Powerful (2013)

Adventure, Fantasy, Family

Full description

Oz the Great and Powerful 2013 BRRip 480p x264 - VYTO [P2PDL]

Size 478.935 MB   68 seeders     Added 2013-05-24 08:39:38

Stream torrent
Starting‥ You need BitLord! Get it from BitLord.com
To download or stream you need BitLord. Visit them at BitLord.com
							Oz the Great and Powerful 2013 BRRip 480p x264 - VYTOGenre: Adventure | Family | Fantasy
Plot: A small-time magician is swept away to an enchanted land and is forced into a power struggle
between three witches. 
Director: Sam Raimi
Stars: James Franco, Mila Kunis, Rachel Weisz.
Rated: PG for sequences of action and scary images, and brief mild language.Info:http://www.imdb.com/title/tt1623205/Trailer:https://www.youtube.com/watch?v=YhLaBpvS7osFormat : MPEG-4
File size : 452 MiB
Duration : 2h 10mn
Overall bit rate : 484 Kbps
Source : 720p.BluRay.x264-SPARKS
Video
Format : AVC
Bit rate : 441 Kbps
Width : 720 pixels
Height : 304 pixels
Display aspect ratio : 2.35:1
Frame rate mode : Constant
Frame rate : 23.976 fps
Stream size : 411 MiB (91%)
Writing library : x264 core 130 r2273
Audio
Format : AAC
Bit rate mode : Variable
Bit rate : 39.9 Kbps
Channel(s) : 2 channels
Channel positions : Front: L R
Sampling rate : 48.0 KHz
Stream size : 37.3 MiB (8%)
Language : English
Subtitle : Yes(English)Screenshots:
----------------------------------------------------------------------------------------------------Encoded using revolutionary 10bit encoding, which enables us to provide you more crispier 
and sharper images at small sizes, just make sure you follow our instructions without a fault.
Recommend to you to use latest version of VLC player. Install K-Lite Codec Pack or shark007 codecs
in case of any kind of problem in playback (For non-VLC Media Player users). Alternatively, install
Core AVC codecs, the fastest decoder that there is coupled with Community Center Codec Pack and play
on Windows Media Player Classic. Check sample to be sure.
Enjoy!
Encoder Notes: Looking For Early Access To Anything You Can Provide DVDScr, R5, DVDR, BluRay, Direct
Audio, Music Releases and Seedboxes. We require dedicated servers, so as to do more and fast releases of movies.
If You Got anything to offer contact us at "contact@p2pdl.com".
						
Oz the Great and Powerful 2013 BRRip 480p x264 - VYTO [P2PDL]/Oz the Great and Powerful 2013 BRRip 480p x264 - VYTO.mp4 473.616 MB
Oz the Great and Powerful 2013 BRRip 480p x264 - VYTO [P2PDL]/Sample.mp4 5.198 MB
Oz the Great and Powerful 2013 BRRip 480p x264 - VYTO [P2PDL]/Oz the Great and Powerful 2013 BRRip 480p x264 - VYTO.srt 116.241 KB
Gathering some info...

Register and log in Isohunt and see no captcha anymore!

4000 symbols left
Hash dc47dcd3c6af985616b5851d8e6a8442700c010c

Related torrents for "Oz the Great and Powerful 2013 BRRip 480p x264 - VYTO [P2PDL]"

Torrent search:

x264 bd 2013