2IN1_HOT &SEXY_ENJOYING IN DIFFERENT STYLE

Size 170.149 MB   0 seeders     Added 2013-05-24 12:16:50

Stream torrent
Starting‚Ä• You need BitLord! Get it from 1BitLord.com
To download or stream you need BitLord. Visit them at BitLord.com
[img]image[/img]




[code]Complete name                            : 2IN1_HOT &SEXY_ENJOYING IN DIFFERENT STYLE
Format                                   : MPEG-4
Format profile                           : Base Media
Codec ID                                 : isom
File size                                : 162 MiB
Duration                                 : 17mn 3s
Overall bit rate mode                    : Variable
Overall bit rate                         : 1 330 Kbps
Writing application                      : Lavf53.24.2[/code]


[img]image[/img]



[code]ID                                       : 1
Format                                   : AVC
Format/Info                              : Advanced Video Codec
Format profile                           : Main@L3.1
Format settings, CABAC                   : Yes
Format settings, ReFrames                : 2 frames
Codec ID                                 : avc1
Codec ID/Info                            : Advanced Video Coding
Duration                                 : 17mn 3s
Source duration                          : 17mn 2s
Bit rate                                 : 1 305 Kbps
Width                                    : 960 pixels
Height                                   : 544 pixels
Display aspect ratio                     : 16:9
Original display aspect ratio            : 16:9
Frame rate mode                          : Variable
Frame rate                               : 19.980 fps
Minimum frame rate                       : 9.990 fps
Maximum frame rate                       : 999.000 fps
Color space                              : YUV
Chroma subsampling                       : 4:2:0
Bit depth                                : 8 bits
Scan type                                : Progressive
Bits/(Pixel*Frame)                       : 0.125
Stream size                              : 155 MiB (95%)
Source stream size                       : 155 MiB (95%)
Writing library                          : x264 core 107[/code]


[img]image[/img]



[code]ID                                       : 2
Format                                   : AAC
Format/Info                              : Advanced Audio Codec
Format profile                           : LC
Codec ID                                 : 40
Duration                                 : 17mn 2s
Bit rate mode                            : Variable
Bit rate                                 : 53.6 Kbps
Maximum bit rate                         : 60.7 Kbps
Channel(s)                               : 2 channels
Channel positions                        : Front: L R
Sampling rate                            : 44.1 KHz
Compression mode                         : Lossy
Stream size                              : 6.53 MiB (4%)[/code]

[img]image[/img]





[img]image[/img]






[img]image[/img]




[img]image[/img]
2IN1_HOT &SEXY_ENJOYING IN DIFFERENT STYLE/2IN1_HOT &SEXY_ENJOYING IN DIFFERENT STYLE.MP4 170.149 MB
Gathering some info...

Register and log in Isohunt and see no captcha anymore!

4000 symbols left
Hash 28b45f6969ccd7a9fca0b3484d5db5e25bd67044