imdb
rating

5.3
A Good Day to Die Hard

A Good Day to Die Hard (2013)

Action, Thriller

Full description

A Good Day to Die Hard 2013

Size 1.482 GB   0 seeders     Added 2013-05-25 02:50:41

Stream torrent
Starting‥ You need BitLord! Get it from BitLord.com
To download or stream you need BitLord. Visit them at BitLord.com
http://www.imdb.com/title/tt1606378/

Format                                   : AVI
Format/Info                              : Audio Video Interleave
Duration                                 : 1h 38mn
Overall bit rate                         : 1 002 Kbps
Writing library                          : VirtualDub build 32842/release

Video
ID                                       : 0
Format                                   : avi
Format profile                           : Advanced Simple@L5
Format settings, BVOP                    : 2
Format settings, QPel                    : No
Format settings, GMC                     : No warppoints
Format settings, Matrix                  : Default (H.263)
Muxing mode                              : Packed bitstream
Codec ID                                 : XVID
Codec ID/Hint                            : XviD
Duration                                 : 1h 38mn
Bit rate                                 : 865 Kbps
Width                                    : 640 pixels
Height                                   : 352 pixels
Display aspect ratio                     : 16:9
Frame rate                               : 23.976 fps
Color space                              : YUV
Chroma subsampling                       : 4:2:0
Bit depth                                : 8 bits
Scan type                                : Progressive
Compression mode                         : Lossy
Bits/(Pixel*Frame)                       : 0.160
Stream size                              : 607 MiB (86%)
Writing library                          : XviD 1.2.0.dev47 (UTC 2006-11-01)

Audio
ID                                       : 1
Format                                   : MPEG Audio
Format version                           : Version 1
Format profile                           : Layer 3
Codec ID                                 : 55
Codec ID/Hint                            : MP3
Duration                                 : 1h 37mn
Bit rate mode                            : Constant
Bit rate                                 : 128 Kbps
Channel(s)                               : 2 channels
Sampling rate                            : 44.1 KHz
Compression mode                         : Lossy
Stream size                              : 89.4 MiB (13%)
Alignment                                : Split accross interleaves
Interleave, duration                     : 42 ms (1.00 video frame)
Interleave, preload duration             : 500 ms
Writing library                          : LAME3.99r


Screens:
 
image 
image 
image
A Good Day to Die Hard 2013/A Good Day to Die Hard 2013 _HDRip_ XViD.avi 1.482 GB
Gathering some info...

Register and log in Isohunt and see no captcha anymore!

4000 symbols left
Hash 6fc8cce42ce43e1fbb15af8c81aa06c4f0437f4e

Related torrents for "A Good Day to Die Hard 2013"

Torrent search:

2013